  0
SECTION
  2
HEADER
  9
$ACADVER
  1
AC1018
  9
$ACADMAINTVER
 70
     0
  9
$DWGCODEPAGE
  3
ANSI_1252
  9
$INSBASE
 10
0.0
 20
0.0
 30
0.0
  9
$EXTMIN
 10
-1301.000000000007
 20
-1181.500000000008
 30
0.0
  9
$EXTMAX
 10
-881.0000000000084
 20
-884.5000000000075
 30
0.0
  9
$LIMMIN
 10
0.0
 20
0.0
  9
$LIMMAX
 10
12.0
 20
9.0
  9
$ORTHOMODE
 70
     0
  9
$REGENMODE
 70
     1
  9
$FILLMODE
 70
     1
  9
$QTEXTMODE
 70
     0
  9
$MIRRTEXT
 70
     1
  9
$LTSCALE
 40
1.0
  9
$ATTMODE
 70
     1
  9
$TEXTSIZE
 40
0.2
  9
$TRACEWID
 40
0.05
  9
$TEXTSTYLE
  7
Standard
  9
$CLAYER
  8
0
  9
$CELTYPE
  6
ByLayer
  9
$CECOLOR
 62
   256
  9
$CELTSCALE
 40
1.0
  9
$DISPSILH
 70
     0
  9
$DIMSCALE
 40
1.0
  9
$DIMASZ
 40
0.18
  9
$DIMEXO
 40
0.0625
  9
$DIMDLI
 40
0.38
  9
$DIMRND
 40
0.0
  9
$DIMDLE
 40
0.0
  9
$DIMEXE
 40
0.18
  9
$DIMTP
 40
0.0
  9
$DIMTM
 40
0.0
  9
$DIMTXT
 40
0.18
  9
$DIMCEN
 40
0.09
  9
$DIMTSZ
 40
0.0
  9
$DIMTOL
 70
     0
  9
$DIMLIM
 70
     0
  9
$DIMTIH
 70
     1
  9
$DIMTOH
 70
     1
  9
$DIMSE1
 70
     0
  9
$DIMSE2
 70
     0
  9
$DIMTAD
 70
     0
  9
$DIMZIN
 70
     0
  9
$DIMBLK
  1

  9
$DIMASO
 70
     1
  9
$DIMSHO
 70
     1
  9
$DIMPOST
  1

  9
$DIMAPOST
  1

  9
$DIMALT
 70
     0
  9
$DIMALTD
 70
     2
  9
$DIMALTF
 40
25.4
  9
$DIMLFAC
 40
1.0
  9
$DIMTOFL
 70
     0
  9
$DIMTVP
 40
0.0
  9
$DIMTIX
 70
     0
  9
$DIMSOXD
 70
     0
  9
$DIMSAH
 70
     0
  9
$DIMBLK1
  1

  9
$DIMBLK2
  1

  9
$DIMSTYLE
  2
Standard
  9
$DIMCLRD
 70
     0
  9
$DIMCLRE
 70
     0
  9
$DIMCLRT
 70
     0
  9
$DIMTFAC
 40
1.0
  9
$DIMGAP
 40
0.09
  9
$DIMJUST
 70
     0
  9
$DIMSD1
 70
     0
  9
$DIMSD2
 70
     0
  9
$DIMTOLJ
 70
     1
  9
$DIMTZIN
 70
     0
  9
$DIMALTZ
 70
     0
  9
$DIMALTTZ
 70
     0
  9
$DIMUPT
 70
     0
  9
$DIMDEC
 70
     4
  9
$DIMTDEC
 70
     4
  9
$DIMALTU
 70
     2
  9
$DIMALTTD
 70
     2
  9
$DIMTXSTY
  7
Standard
  9
$DIMAUNIT
 70
     0
  9
$DIMADEC
 70
     0
  9
$DIMALTRND
 40
0.0
  9
$DIMAZIN
 70
     0
  9
$DIMDSEP
 70
    46
  9
$DIMATFIT
 70
     3
  9
$DIMFRAC
 70
     0
  9
$DIMLDRBLK
  1

  9
$DIMLUNIT
 70
     2
  9
$DIMLWD
 70
    -2
  9
$DIMLWE
 70
    -2
  9
$DIMTMOVE
 70
     0
  9
$LUNITS
 70
     2
  9
$LUPREC
 70
     4
  9
$SKETCHINC
 40
0.1
  9
$FILLETRAD
 40
0.5
  9
$AUNITS
 70
     0
  9
$AUPREC
 70
     0
  9
$MENU
  1
.
  9
$ELEVATION
 40
0.0
  9
$PELEVATION
 40
0.0
  9
$THICKNESS
 40
0.0
  9
$LIMCHECK
 70
     0
  9
$CHAMFERA
 40
0.0
  9
$CHAMFERB
 40
0.0
  9
$CHAMFERC
 40
0.0
  9
$CHAMFERD
 40
0.0
  9
$SKPOLY
 70
     0
  9
$TDCREATE
 40
2458695.83708956
  9
$TDUCREATE
 40
2458695.753756227
  9
$TDUPDATE
 40
2458695.837089745
  9
$TDUUPDATE
 40
2458695.753756412
  9
$TDINDWG
 40
0.0000000116
  9
$TDUSRTIMER
 40
0.0000000116
  9
$USRTIMER
 70
     1
  9
$ANGBASE
 50
0.0
  9
$ANGDIR
 70
     0
  9
$PDMODE
 70
     0
  9
$PDSIZE
 40
0.0
  9
$PLINEWID
 40
0.0
  9
$SPLFRAME
 70
     0
  9
$SPLINETYPE
 70
     6
  9
$SPLINESEGS
 70
     8
  9
$HANDSEED
  5
31A
  9
$SURFTAB1
 70
     6
  9
$SURFTAB2
 70
     6
  9
$SURFTYPE
 70
     6
  9
$SURFU
 70
     6
  9
$SURFV
 70
     6
  9
$UCSBASE
  2

  9
$UCSNAME
  2

  9
$UCSORG
 10
0.0
 20
0.0
 30
0.0
  9
$UCSXDIR
 10
1.0
 20
0.0
 30
0.0
  9
$UCSYDIR
 10
0.0
 20
1.0
 30
0.0
  9
$UCSORTHOREF
  2

  9
$UCSORTHOVIEW
 70
     0
  9
$UCSORGTOP
 10
0.0
 20
0.0
 30
0.0
  9
$UCSORGBOTTOM
 10
0.0
 20
0.0
 30
0.0
  9
$UCSORGLEFT
 10
0.0
 20
0.0
 30
0.0
  9
$UCSORGRIGHT
 10
0.0
 20
0.0
 30
0.0
  9
$UCSORGFRONT
 10
0.0
 20
0.0
 30
0.0
  9
$UCSORGBACK
 10
0.0
 20
0.0
 30
0.0
  9
$PUCSBASE
  2

  9
$PUCSNAME
  2

  9
$PUCSORG
 10
0.0
 20
0.0
 30
0.0
  9
$PUCSXDIR
 10
1.0
 20
0.0
 30
0.0
  9
$PUCSYDIR
 10
0.0
 20
1.0
 30
0.0
  9
$PUCSORTHOREF
  2

  9
$PUCSORTHOVIEW
 70
     0
  9
$PUCSORGTOP
 10
0.0
 20
0.0
 30
0.0
  9
$PUCSORGBOTTOM
 10
0.0
 20
0.0
 30
0.0
  9
$PUCSORGLEFT
 10
0.0
 20
0.0
 30
0.0
  9
$PUCSORGRIGHT
 10
0.0
 20
0.0
 30
0.0
  9
$PUCSORGFRONT
 10
0.0
 20
0.0
 30
0.0
  9
$PUCSORGBACK
 10
0.0
 20
0.0
 30
0.0
  9
$USERI1
 70
     0
  9
$USERI2
 70
     0
  9
$USERI3
 70
     0
  9
$USERI4
 70
     0
  9
$USERI5
 70
     0
  9
$USERR1
 40
20.1
  9
$USERR2
 40
0.0
  9
$USERR3
 40
0.0
  9
$USERR4
 40
0.0
  9
$USERR5
 40
0.0
  9
$WORLDVIEW
 70
     1
  9
$SHADEDGE
 70
     3
  9
$SHADEDIF
 70
    70
  9
$TILEMODE
 70
     1
  9
$MAXACTVP
 70
    64
  9
$PINSBASE
 10
0.0
 20
0.0
 30
0.0
  9
$PLIMCHECK
 70
     0
  9
$PEXTMIN
 10
1.00000000000000E+20
 20
1.00000000000000E+20
 30
1.00000000000000E+20
  9
$PEXTMAX
 10
-1.00000000000000E+20
 20
-1.00000000000000E+20
 30
-1.00000000000000E+20
  9
$PLIMMIN
 10
0.0
 20
0.0
  9
$PLIMMAX
 10
12.0
 20
9.0
  9
$UNITMODE
 70
     0
  9
$VISRETAIN
 70
     1
  9
$PLINEGEN
 70
     0
  9
$PSLTSCALE
 70
     1
  9
$TREEDEPTH
 70
  3020
  9
$CMLSTYLE
  2
Standard
  9
$CMLJUST
 70
     0
  9
$CMLSCALE
 40
1.0
  9
$PROXYGRAPHICS
 70
     1
  9
$MEASUREMENT
 70
     1
  9
$CELWEIGHT
370
    -1
  9
$ENDCAPS
280
     0
  9
$JOINSTYLE
280
     0
  9
$LWDISPLAY
290
     0
  9
$INSUNITS
 70
     4
  9
$HYPERLINKBASE
  1

  9
$STYLESHEET
  1

  9
$XEDIT
290
     1
  9
$CEPSNTYPE
380
     0
  9
$PSTYLEMODE
290
     1
  9
$FINGERPRINTGUID
  2
{9ee2079f-a4b7-4566-af48-262c3581119c}
  9
$VERSIONGUID
  2
{FAEB1C32-E019-11D5-929B-00C0DF256EC4}
  9
$EXTNAMES
290
     1
  9
$PSVPSCALE
 40
0.0
  9
$OLESTARTUP
290
     0
  9
$SORTENTS
280
   127
  9
$INDEXCTL
280
     0
  9
$HIDETEXT
280
     1
  9
$XCLIPFRAME
290
     0
  9
$HALOGAP
280
     0
  9
$OBSCOLOR
 70
   257
  9
$OBSLTYPE
280
     0
  9
$INTERSECTIONDISPLAY
280
     0
  9
$INTERSECTIONCOLOR
 70
   257
  9
$DIMASSOC
280
     2
  9
$PROJECTNAME
  1

  0
ENDSEC
  0
SECTION
  2
CLASSES
  0
CLASS
  1
ACDBDICTIONARYWDFLT
  2
AcDbDictionaryWithDefault
  3
ObjectDBX Classes
 90
        0
 91
        3
280
     0
281
     0
  0
CLASS
  1
VISUALSTYLE
  2
AcDbVisualStyle
  3
ObjectDBX Classes
 90
     4095
 91
        3
280
     0
281
     0
  0
CLASS
  1
MATERIAL
  2
AcDbMaterial
  3
ObjectDBX Classes
 90
     1153
 91
        3
280
     0
281
     0
  0
CLASS
  1
SCALE
  2
AcDbScale
  3
ObjectDBX Classes
 90
     1153
 91
        3
280
     0
281
     0
  0
CLASS
  1
TABLESTYLE
  2
AcDbTableStyle
  3
ObjectDBX Classes
 90
     4095
 91
        3
280
     0
281
     0
  0
CLASS
  1
MLEADERSTYLE
  2
AcDbMLeaderStyle
  3
ACDB_MLEADERSTYLE_CLASS
 90
     4095
 91
        3
280
     0
281
     0
  0
CLASS
  1
SUN
  2
AcDbSun
  3
SCENEOE
 90
     1153
 91
        3
280
     0
281
     0
  0
CLASS
  1
DICTIONARYVAR
  2
AcDbDictionaryVar
  3
ObjectDBX Classes
 90
        0
 91
        3
280
     0
281
     0
  0
CLASS
  1
CELLSTYLEMAP
  2
AcDbCellStyleMap
  3
ObjectDBX Classes
 90
     1152
 91
        3
280
     0
281
     0
  0
ENDSEC
  0
SECTION
  2
TABLES
  0
TABLE
  2
VPORT
  5
8
102
{ACAD_XDICTIONARY
360
2D3
102
}
330
0
100
AcDbSymbolTable
 70
     1
  0
VPORT
  5
29
330
8
100
AcDbSymbolTableRecord
100
AcDbViewportTableRecord
  2
*Active
 70
     0
 10
0.0
 20
0.0
 11
1.0
 21
1.0
 12
-1091.000000000008
 22
-1033.000000000008
 13
0.0
 23
0.0
 14
0.5
 24
0.5
 15
0.5
 25
0.5
 16
0.0
 26
0.0
 36
1.0
 17
0.0
 27
0.0
 37
0.0
 40
326.7000000000005
 41
1.60267857142857
 42
50.0
 43
0.0
 44
0.0
 50
0.0
 51
0.0
 71
     0
 72
   100
 73
     1
 74
     3
 75
     0
 76
     0
 77
     0
 78
     0
281
     0
 65
     1
110
0.0
120
0.0
130
0.0
111
1.0
121
0.0
131
0.0
112
0.0
122
1.0
132
0.0
 79
     0
146
0.0
  0
ENDTAB
  0
TABLE
  2
LTYPE
  5
5
330
0
100
AcDbSymbolTable
 70
     8
  0
LTYPE
  5
14
330
5
100
AcDbSymbolTableRecord
100
AcDbLinetypeTableRecord
  2
ByBlock
 70
     0
  3

 72
    65
 73
     0
 40
0.0
  0
LTYPE
  5
15
330
5
100
AcDbSymbolTableRecord
100
AcDbLinetypeTableRecord
  2
ByLayer
 70
     0
  3

 72
    65
 73
     0
 40
0.0
  0
LTYPE
  5
16
330
5
100
AcDbSymbolTableRecord
100
AcDbLinetypeTableRecord
  2
Continuous
 70
     0
  3
Solid line
 72
    65
 73
     0
 40
0.0
  0
LTYPE
  5
6E
330
5
100
AcDbSymbolTableRecord
100
AcDbLinetypeTableRecord
  2
DASHED
 70
     0
  3
Dashed
 72
    65
 73
     2
 40
15.0
 49
7.0
 74
     0
 49
-8.0
 74
     0
  0
LTYPE
  5
6F
330
5
100
AcDbSymbolTableRecord
100
AcDbLinetypeTableRecord
  2
DOTTED
 70
     0
  3
Dotted
 72
    65
 73
     2
 40
1.0
 49
0.0
 74
     0
 49
-1.0
 74
     0
  0
LTYPE
  5
70
330
5
100
AcDbSymbolTableRecord
100
AcDbLinetypeTableRecord
  2
DOT_CENTER
 70
     0
  3
Dot_Center
 72
    65
 73
     4
 40
14.0
 49
12.0
 74
     0
 49
-1.0
 74
     0
 49
0.0
 74
     0
 49
-1.0
 74
     0
  0
LTYPE
  5
71
330
5
100
AcDbSymbolTableRecord
100
AcDbLinetypeTableRecord
  2
LONG_DASHED
 70
     0
  3
Long_Dashed
 72
    65
 73
     2
 40
15.0
 49
10.0
 74
     0
 49
-5.0
 74
     0
  0
LTYPE
  5
72
330
5
100
AcDbSymbolTableRecord
100
AcDbLinetypeTableRecord
  2
DASH_CENTER
 70
     0
  3
Dash_Center
 72
    65
 73
     4
 40
14.0
 49
11.0
 74
     0
 49
-1.0
 74
     0
 49
1.0
 74
     0
 49
-1.0
 74
     0
  0
LTYPE
  5
73
330
5
100
AcDbSymbolTableRecord
100
AcDbLinetypeTableRecord
  2
PHANTOM
 70
     0
  3
Phantom
 72
    65
 73
     6
 40
13.0
 49
10.0
 74
     0
 49
-1.0
 74
     0
 49
0.0
 74
     0
 49
-1.0
 74
     0
 49
0.0
 74
     0
 49
-1.0
 74
     0
  0
LTYPE
  5
74
330
5
100
AcDbSymbolTableRecord
100
AcDbLinetypeTableRecord
  2
CENTER_DASH_DASH
 70
     0
  3
Center_Dash_Dash
 72
    65
 73
     6
 40
14.0
 49
9.0
 74
     0
 49
-1.0
 74
     0
 49
1.0
 74
     0
 49
-1.0
 74
     0
 49
1.0
 74
     0
 49
-1.0
 74
     0
  0
ENDTAB
  0
TABLE
  2
LAYER
  5
2
330
0
100
AcDbSymbolTable
 70
     2
  0
LAYER
  5
10
330
2
100
AcDbSymbolTableRecord
100
AcDbLayerTableRecord
  2
0
 70
     0
 62
     7
  6
Continuous
370
    -3
390
F
  0
LAYER
  5
75
330
2
100
AcDbSymbolTableRecord
100
AcDbLayerTableRecord
  2
1
 70
     0
 62
     7
  6
Continuous
370
    -3
390
F
  0
ENDTAB
  0
TABLE
  2
STYLE
  5
3
330
0
100
AcDbSymbolTable
 70
     5
  0
STYLE
  5
11
330
3
100
AcDbSymbolTableRecord
100
AcDbTextStyleTableRecord
  2
Standard
 70
     0
 40
0.0
 41
1.0
 50
0.0
 71
     0
 42
0.2
  3
txt
  4

  0
STYLE
  5
FD
330
3
100
AcDbSymbolTableRecord
100
AcDbTextStyleTableRecord
  2
CONVERTER_11
 70
     0
 40
0.0
 41
0.9
 50
0.0
 71
     0
 42
0.2
  3
txt.shx
  4

  0
STYLE
  5
295
330
3
100
AcDbSymbolTableRecord
100
AcDbTextStyleTableRecord
  2
CONVERTER_12
 70
     0
 40
0.0
 41
0.81
 50
0.0
 71
     0
 42
0.2
  3
txt.shx
  4

  0
STYLE
  5
29D
330
3
100
AcDbSymbolTableRecord
100
AcDbTextStyleTableRecord
  2
CONVERTER_13
 70
     0
 40
0.0
 41
0.72
 50
0.0
 71
     0
 42
0.2
  3
txt.shx
  4

  0
STYLE
  5
2A0
330
3
100
AcDbSymbolTableRecord
100
AcDbTextStyleTableRecord
  2
CONVERTER_14
 70
     0
 40
0.0
 41
0.855
 50
0.0
 71
     0
 42
0.2
  3
txt.shx
  4

  0
ENDTAB
  0
TABLE
  2
VIEW
  5
6
330
0
100
AcDbSymbolTable
 70
     0
  0
ENDTAB
  0
TABLE
  2
UCS
  5
7
330
0
100
AcDbSymbolTable
 70
     0
  0
ENDTAB
  0
TABLE
  2
APPID
  5
9
330
0
100
AcDbSymbolTable
 70
     2
  0
APPID
  5
12
330
9
100
AcDbSymbolTableRecord
100
AcDbRegAppTableRecord
  2
ACAD
 70
     0
  0
APPID
  5
312
330
9
100
AcDbSymbolTableRecord
100
AcDbRegAppTableRecord
  2
ACAD_MLEADERVER
 70
     0
  0
ENDTAB
  0
TABLE
  2
DIMSTYLE
  5
A
330
0
100
AcDbSymbolTable
 70
     4
100
AcDbDimStyleTable
  0
DIMSTYLE
105
27
330
A
100
AcDbSymbolTableRecord
100
AcDbDimStyleTableRecord
  2
Standard
 70
     0
178
     0
340
11
  0
DIMSTYLE
105
13D
102
{ACAD_REACTORS
330
13E
102
}
330
A
100
AcDbSymbolTableRecord
100
AcDbDimStyleTableRecord
  2
ME10_DIM_10
 70
     0
 41
3.5
 42
0.0
 44
1.5
 73
     0
 74
     0
 77
     1
 78
     8
140
3.5
147
1.5
172
     1
173
     1
174
     1
175
     1
176
     2
177
     2
178
     3
340
FD
  0
DIMSTYLE
105
179
102
{ACAD_REACTORS
330
17A
102
}
330
A
100
AcDbSymbolTableRecord
100
AcDbDimStyleTableRecord
  2
ME10_DIM_11
 70
     0
 41
3.5
 42
0.0
 44
1.5
 73
     0
 74
     0
 77
     1
 78
     8
140
3.5
147
1.5
172
     1
173
     1
174
     1
175
     1
176
     2
177
     2
178
     3
340
FD
  0
DIMSTYLE
105
184
102
{ACAD_REACTORS
330
185
102
}
330
A
100
AcDbSymbolTableRecord
100
AcDbDimStyleTableRecord
  2
ME10_DIM_12
 70
     0
 41
3.5
 42
0.0
 44
1.5
 73
     0
 74
     0
 77
     1
 78
     8
140
3.5
147
1.5
172
     1
173
     1
174
     1
175
     1
176
     2
177
     2
178
     3
340
FD
  0
ENDTAB
  0
TABLE
  2
BLOCK_RECORD
  5
1
330
0
100
AcDbSymbolTable
 70
    20
  0
BLOCK_RECORD
  5
1F
330
1
100
AcDbSymbolTableRecord
100
AcDbBlockTableRecord
  2
*Model_Space
340
22
  0
BLOCK_RECORD
  5
1B
330
1
100
AcDbSymbolTableRecord
100
AcDbBlockTableRecord
  2
*Paper_Space
340
1E
  0
BLOCK_RECORD
  5
23
330
1
100
AcDbSymbolTableRecord
100
AcDbBlockTableRecord
  2
*Paper_Space0
340
26
  0
BLOCK_RECORD
  5
76
330
1
100
AcDbSymbolTableRecord
100
AcDbBlockTableRecord
  2
PLD_M_ME_MB_D70-select__1
340
0
102
{BLKREFS
331
7A
102
}
  0
BLOCK_RECORD
  5
79
330
1
100
AcDbSymbolTableRecord
100
AcDbBlockTableRecord
  2
Allg1
340
0
102
{BLKREFS
331
AC
102
}
  0
BLOCK_RECORD
  5
7D
330
1
100
AcDbSymbolTableRecord
100
AcDbBlockTableRecord
  2
PLD_M_ME_MB_D70-select__2
340
0
102
{BLKREFS
331
81
102
}
  0
BLOCK_RECORD
  5
80
330
1
100
AcDbSymbolTableRecord
100
AcDbBlockTableRecord
  2
Drfsicht1
340
0
102
{BLKREFS
331
AD
102
}
  0
BLOCK_RECORD
  5
84
330
1
100
AcDbSymbolTableRecord
100
AcDbBlockTableRecord
  2
PLD_M_ME_MB_D70-select__3
340
0
102
{BLKREFS
331
88
102
}
  0
BLOCK_RECORD
  5
87
330
1
100
AcDbSymbolTableRecord
100
AcDbBlockTableRecord
  2
Rckans1
340
0
102
{BLKREFS
331
AE
102
}
  0
BLOCK_RECORD
  5
8B
330
1
100
AcDbSymbolTableRecord
100
AcDbBlockTableRecord
  2
PLD_M_ME_MB_D70-select__4
340
0
102
{BLKREFS
331
8F
102
}
  0
BLOCK_RECORD
  5
8E
330
1
100
AcDbSymbolTableRecord
100
AcDbBlockTableRecord
  2
SA_Links1
340
0
102
{BLKREFS
331
AF
102
}
  0
BLOCK_RECORD
  5
92
330
1
100
AcDbSymbolTableRecord
100
AcDbBlockTableRecord
  2
PLD_M_ME_MB_D70-select__5
340
0
102
{BLKREFS
331
96
102
}
  0
BLOCK_RECORD
  5
95
330
1
100
AcDbSymbolTableRecord
100
AcDbBlockTableRecord
  2
SA_Rechts1
340
0
102
{BLKREFS
331
B0
102
}
  0
BLOCK_RECORD
  5
99
330
1
100
AcDbSymbolTableRecord
100
AcDbBlockTableRecord
  2
PLD_M_ME_MB_D70-select__6
340
0
102
{BLKREFS
331
9D
102
}
  0
BLOCK_RECORD
  5
9C
330
1
100
AcDbSymbolTableRecord
100
AcDbBlockTableRecord
  2
Vordans1
340
0
102
{BLKREFS
331
B1
102
}
  0
BLOCK_RECORD
  5
A0
330
1
100
AcDbSymbolTableRecord
100
AcDbBlockTableRecord
  2
_punkt
340
0
102
{BLKREFS
331
A7
102
}
  0
BLOCK_RECORD
  5
A3
330
1
100
AcDbSymbolTableRecord
100
AcDbBlockTableRecord
  2
_rahmen
340
0
102
{BLKREFS
331
A8
102
}
  0
BLOCK_RECORD
  5
A6
330
1
100
AcDbSymbolTableRecord
100
AcDbBlockTableRecord
  2
A3I_CS
340
0
102
{BLKREFS
331
B2
102
}
  0
BLOCK_RECORD
  5
AB
330
1
100
AcDbSymbolTableRecord
100
AcDbBlockTableRecord
  2
1
340
0
102
{BLKREFS
331
B5
102
}
  0
BLOCK_RECORD
  5
134
330
1
100
AcDbSymbolTableRecord
100
AcDbBlockTableRecord
  2
*D17
340
0
  0
BLOCK_RECORD
  5
170
330
1
100
AcDbSymbolTableRecord
100
AcDbBlockTableRecord
  2
*D18
340
0
  0
BLOCK_RECORD
  5
17B
330
1
100
AcDbSymbolTableRecord
100
AcDbBlockTableRecord
  2
*D19
340
0
  0
ENDTAB
  0
ENDSEC
  0
SECTION
  2
BLOCKS
  0
BLOCK
  5
20
330
1F
100
AcDbEntity
  8
0
100
AcDbBlockBegin
  2
*Model_Space
 70
     0
 10
0.0
 20
0.0
 30
0.0
  3
*Model_Space
  1

  0
ENDBLK
  5
21
330
1F
100
AcDbEntity
  8
0
100
AcDbBlockEnd
  0
BLOCK
  5
1C
330
1B
100
AcDbEntity
 67
     1
  8
0
100
AcDbBlockBegin
  2
*Paper_Space
 70
     0
 10
0.0
 20
0.0
 30
0.0
  3
*Paper_Space
  1

  0
ENDBLK
  5
1D
330
1B
100
AcDbEntity
 67
     1
  8
0
100
AcDbBlockEnd
  0
BLOCK
  5
24
330
23
100
AcDbEntity
  8
0
100
AcDbBlockBegin
  2
*Paper_Space0
 70
     0
 10
0.0
 20
0.0
 30
0.0
  3
*Paper_Space0
  1

  0
ENDBLK
  5
25
330
23
100
AcDbEntity
  8
0
100
AcDbBlockEnd
  0
BLOCK
  5
77
330
76
100
AcDbEntity
  8
0
100
AcDbBlockBegin
  2
PLD_M_ME_MB_D70-select__1
 70
     0
 10
-994.8108891324716
 20
-1132.262704120628
 30
0.0
  3
PLD_M_ME_MB_D70-select__1
  1

  0
LINE
  5
B6
330
76
100
AcDbEntity
  8
0
  6
Continuous
 62
     7
100
AcDbLine
 10
-939.7316734517815
 20
-1128.930653313059
 30
0.0
 11
-939.7316734517815
 21
-1130.662704120628
 31
0.0
  0
LINE
  5
B7
330
76
100
AcDbEntity
  8
0
  6
Continuous
 62
     7
100
AcDbLine
 10
-921.1891108675609
 20
-1121.00437387143
 30
0.0
 11
-921.1891108675609
 21
-1095.341883863449
 31
0.0
  0
LINE
  5
B8
330
76
100
AcDbEntity
  8
0
  6
Continuous
 62
     7
100
AcDbLine
 10
-934.1891108675609
 20
-1130.530653313059
 30
0.0
 11
-934.1891108675609
 21
-1132.262704120628
 31
0.0
  0
LINE
  5
B9
330
76
100
AcDbEntity
  8
0
  6
Continuous
 62
     2
100
AcDbLine
 10
-936.4850055514605
 20
-1120.91895643373
 30
0.0
 11
-936.4850055514605
 21
-1122.651007241299
 31
0.0
  0
LINE
  5
BA
330
76
100
AcDbEntity
  8
0
  6
Continuous
 62
     7
100
AcDbLine
 10
-922.1891108675609
 20
-1120.138348467646
 30
0.0
 11
-922.1891108675609
 21
-1096.207909267234
 31
0.0
  0
LINE
  5
BB
330
76
100
AcDbEntity
  8
0
  6
Continuous
 62
     7
100
AcDbLine
 10
-931.9816734517815
 20
-1122.21895643373
 30
0.0
 11
-939.7316734517815
 21
-1128.930653313059
 31
0.0
  0
LINE
  5
BC
330
76
100
AcDbEntity
  8
0
  6
Continuous
 62
     7
100
AcDbLine
 10
-934.1891108675609
 20
-1130.530653313059
 30
0.0
 11
-939.7316734517815
 21
-1128.930653313059
 31
0.0
  0
LINE
  5
BD
330
76
100
AcDbEntity
  8
0
  6
Continuous
 62
     7
100
AcDbLine
 10
-922.1891108675609
 20
-1120.138348467646
 30
0.0
 11
-934.1891108675609
 21
-1130.530653313059
 31
0.0
  0
LINE
  5
BE
330
76
100
AcDbEntity
  8
0
  6
Continuous
 62
     7
100
AcDbLine
 10
-921.1891108675609
 20
-1121.00437387143
 30
0.0
 11
-934.1891108675609
 21
-1132.262704120628
 31
0.0
  0
LINE
  5
BF
330
76
100
AcDbEntity
  8
0
  6
Continuous
 62
     7
100
AcDbLine
 10
-934.1891108675609
 20
-1132.262704120628
 30
0.0
 11
-939.7316734517815
 21
-1130.662704120628
 31
0.0
  0
LINE
  5
C0
330
76
100
AcDbEntity
  8
0
  6
Continuous
 62
     7
100
AcDbLine
 10
-977.0149944485722
 20
-1109.21895643373
 30
0.0
 11
-984.7649944485721
 21
-1115.930653313059
 31
0.0
  0
LINE
  5
C1
330
76
100
AcDbEntity
  8
0
  6
Continuous
 62
     2
100
AcDbLine
 10
-981.5183265482513
 20
-1107.91895643373
 30
0.0
 11
-981.5183265482513
 21
-1109.651007241299
 31
0.0
  0
LINE
  5
C2
330
76
100
AcDbEntity
  8
0
  6
Continuous
 62
     7
100
AcDbLine
 10
-989.2683265482513
 20
-1116.362704120628
 30
0.0
 11
-989.2683265482513
 21
-1114.630653313059
 31
0.0
  0
LINE
  5
C3
330
76
100
AcDbEntity
  8
0
  6
Continuous
 62
     7
100
AcDbLine
 10
-989.2683265482513
 20
-1114.630653313059
 30
0.0
 11
-981.5183265482513
 21
-1107.91895643373
 31
0.0
  0
LINE
  5
C4
330
76
100
AcDbEntity
  8
0
  6
Continuous
 62
     7
100
AcDbLine
 10
-989.2683265482513
 20
-1116.362704120628
 30
0.0
 11
-981.5183265482513
 21
-1109.651007241299
 31
0.0
  0
LINE
  5
C5
330
76
100
AcDbEntity
  8
0
  6
Continuous
 62
     7
100
AcDbLine
 10
-989.2683265482513
 20
-1114.630653313059
 30
0.0
 11
-994.8108891324716
 21
-1113.030653313059
 31
0.0
  0
LINE
  5
C6
330
76
100
AcDbEntity
  8
0
  6
Continuous
 62
     7
100
AcDbLine
 10
-994.8108891324716
 20
-1113.030653313059
 30
0.0
 11
-982.8108891324716
 21
-1102.638348467646
 31
0.0
  0
LINE
  5
C7
330
76
100
AcDbEntity
  8
0
  6
Continuous
 62
     7
100
AcDbLine
 10
-921.1891108675609
 20
-1095.341883863449
 30
0.0
 11
-922.1891108675609
 21
-1096.207909267234
 31
0.0
  0
LINE
  5
C8
330
76
100
AcDbEntity
  8
0
  6
Continuous
 62
     7
100
AcDbLine
 10
-922.1891108675609
 20
-1096.207909267234
 30
0.0
 11
-936.0174030883671
 21
-1062.561156782829
 31
0.0
  0
LINE
  5
C9
330
76
100
AcDbEntity
  8
0
  6
Continuous
 62
     7
100
AcDbLine
 10
-935.0174030883671
 20
-1061.695131379044
 30
0.0
 11
-921.1891108675609
 21
-1095.341883863449
 31
0.0
  0
LINE
  5
CA
330
76
100
AcDbEntity
  8
0
  6
Continuous
 62
     7
100
AcDbLine
 10
-994.8108891324716
 20
-1113.030653313059
 30
0.0
 11
-994.8108891324716
 21
-1114.762704120628
 31
0.0
  0
LINE
  5
CB
330
76
100
AcDbEntity
  8
0
  6
Continuous
 62
     7
100
AcDbLine
 10
-989.2683265482513
 20
-1116.362704120628
 30
0.0
 11
-994.8108891324716
 21
-1114.762704120628
 31
0.0
  0
LINE
  5
CC
330
76
100
AcDbEntity
  8
0
  6
Continuous
 62
     7
100
AcDbLine
 10
-966.7516660498559
 20
-1122.862704120628
 30
0.0
 11
-984.7649944485721
 21
-1117.662704120628
 31
0.0
  0
LINE
  5
CD
330
76
100
AcDbEntity
  8
0
  6
Continuous
 62
     7
100
AcDbLine
 10
-966.2477270848839
 20
-1049.614494200683
 30
0.0
 11
-965.2477270848839
 21
-1048.748468796899
 31
0.0
  0
LINE
  5
CE
330
76
100
AcDbEntity
  8
0
  6
Continuous
 62
     2
100
AcDbLine
 10
-935.680393363659
 20
-1076.877836569593
 30
0.0
 11
-936.4883344286998
 21
-1077.577534056679
 31
0.0
  0
LINE
  5
CF
330
76
100
AcDbEntity
  8
0
  6
Continuous
 62
     7
100
AcDbLine
 10
-939.1450651175736
 20
-1080.909952565847
 30
0.0
 11
-938.1450651175736
 21
-1080.043927162063
 31
0.0
  0
LINE
  5
D0
330
76
100
AcDbEntity
  8
0
  6
Continuous
 62
     2
100
AcDbLine
 10
-936.0174030883671
 20
-1062.561156782829
 30
0.0
 11
-935.0174030883671
 21
-1061.695131379044
 31
0.0
  0
LINE
  5
D1
330
76
100
AcDbEntity
  8
0
  6
Continuous
 62
     7
100
AcDbLine
 10
-944.2350055514605
 20
-1129.362704120628
 30
0.0
 11
-944.2350055514605
 21
-1127.630653313059
 31
0.0
  0
LINE
  5
D2
330
76
100
AcDbEntity
  8
0
  6
Continuous
 62
     7
100
AcDbLine
 10
-944.2350055514605
 20
-1129.362704120628
 30
0.0
 11
-936.4850055514605
 21
-1122.651007241299
 31
0.0
  0
LINE
  5
D3
330
76
100
AcDbEntity
  8
0
  6
Continuous
 62
     7
100
AcDbLine
 10
-944.2350055514605
 20
-1127.630653313059
 30
0.0
 11
-936.4850055514605
 21
-1120.91895643373
 31
0.0
  0
LINE
  5
D4
330
76
100
AcDbEntity
  8
0
  6
Continuous
 62
     7
100
AcDbLine
 10
-966.7516660498559
 20
-1122.862704120628
 30
0.0
 11
-966.7516660498559
 21
-1121.130653313059
 31
0.0
  0
LINE
  5
D5
330
76
100
AcDbEntity
  8
0
  6
Continuous
 62
     7
100
AcDbLine
 10
-962.2483339501767
 20
-1122.430653313059
 30
0.0
 11
-962.2483339501767
 21
-1124.162704120628
 31
0.0
  0
LINE
  5
D6
330
76
100
AcDbEntity
  8
0
  6
Continuous
 62
     2
100
AcDbLine
 10
-959.0016660498559
 20
-1114.41895643373
 30
0.0
 11
-959.0016660498559
 21
-1116.151007241299
 31
0.0
  0
LINE
  5
D7
330
76
100
AcDbEntity
  8
0
  6
Continuous
 62
     7
100
AcDbLine
 10
-984.7649944485721
 20
-1115.930653313059
 30
0.0
 11
-984.7649944485721
 21
-1117.662704120628
 31
0.0
  0
LINE
  5
D8
330
76
100
AcDbEntity
  8
0
  6
Continuous
 62
     7
100
AcDbLine
 10
-966.7516660498559
 20
-1121.130653313059
 30
0.0
 11
-984.7649944485721
 21
-1115.930653313059
 31
0.0
  0
LINE
  5
D9
330
76
100
AcDbEntity
  8
0
  6
Continuous
 62
     7
100
AcDbLine
 10
-966.7516660498559
 20
-1121.130653313059
 30
0.0
 11
-959.0016660498559
 21
-1114.41895643373
 31
0.0
  0
LINE
  5
DA
330
76
100
AcDbEntity
  8
0
  6
Continuous
 62
     7
100
AcDbLine
 10
-954.4983339501767
 20
-1115.71895643373
 30
0.0
 11
-962.2483339501767
 21
-1122.430653313059
 31
0.0
  0
LINE
  5
DB
330
76
100
AcDbEntity
  8
0
  6
Continuous
 62
     7
100
AcDbLine
 10
-944.2350055514605
 20
-1127.630653313059
 30
0.0
 11
-962.2483339501767
 21
-1122.430653313059
 31
0.0
  0
LINE
  5
DC
330
76
100
AcDbEntity
  8
0
  6
Continuous
 62
     7
100
AcDbLine
 10
-966.7516660498559
 20
-1122.862704120628
 30
0.0
 11
-959.0016660498559
 21
-1116.151007241299
 31
0.0
  0
LINE
  5
DD
330
76
100
AcDbEntity
  8
0
  6
Continuous
 62
     7
100
AcDbLine
 10
-944.2350055514605
 20
-1129.362704120628
 30
0.0
 11
-962.2483339501767
 21
-1124.162704120628
 31
0.0
  0
LINE
  5
DE
330
76
100
AcDbEntity
  8
0
  6
Continuous
 62
     2
100
AcDbLine
 10
-971.5930705208841
 20
-1068.192159485981
 30
0.0
 11
-972.5930705208841
 21
-1069.058184889765
 31
0.0
  0
LINE
  5
DF
330
76
100
AcDbEntity
  8
0
  6
Continuous
 62
     7
100
AcDbLine
 10
-968.9825969116655
 20
-1053.044925018944
 30
0.0
 11
-982.8108891324716
 21
-1078.707909267234
 31
0.0
  0
LINE
  5
E0
330
76
100
AcDbEntity
  8
0
  6
Continuous
 62
     7
100
AcDbLine
 10
-982.8108891324716
 20
-1078.707909267234
 30
0.0
 11
-982.8108891324716
 21
-1102.638348467646
 31
0.0
  0
LINE
  5
E1
330
76
100
AcDbEntity
  8
0
  6
Continuous
 62
     7
100
AcDbLine
 10
-982.8108891324716
 20
-1102.638348467646
 30
0.0
 11
-922.1891108675609
 21
-1120.138348467646
 31
0.0
  0
ARC
  5
E2
330
76
100
AcDbEntity
  8
0
  6
Continuous
 62
     7
100
AcDbCircle
 10
-935.1613539904586
 20
-1078.288119729996
 30
0.0
 40
1.505260470017563
100
AcDbArc
 50
131.0422671523839
 51
151.8313650280374
  0
SPLINE
  5
E3
330
76
100
AcDbEntity
  8
0
  6
Continuous
 62
     7
100
AcDbSpline
210
0.0
220
0.0
230
1.0
 70
  1064
 71
     3
 72
    11
 73
     7
 74
     5
 42
0.000000001
 43
0.0000000001
 44
0.00000001
 40
0.0
 40
0.0
 40
0.0
 40
0.0
 40
1.372222083859439
 40
3.040961430051874
 40
4.506148782696696
 40
5.462721948915014
 40
5.462721948915014
 40
5.462721948915014
 40
5.462721948915014
 10
-936.4850055514605
 20
-1120.91895643373
 30
0.0
 10
-936.0733360043318
 20
-1120.700272557243
 30
0.0
 10
-935.1610410956781
 20
-1120.215650409515
 30
0.0
 10
-933.6509384857425
 20
-1120.262272792487
 30
0.0
 10
-932.1774054678028
 20
-1120.52958637758
 30
0.0
 10
-931.7873914512708
 20
-1121.274659419431
 30
0.0
 10
-931.633339501621
 20
-1121.56895643373
 30
0.0
 11
-936.4850055514605
 21
-1120.91895643373
 31
0.0
 11
-935.2282513031696
 21
-1120.367991651398
 31
0.0
 11
-933.5604099843544
 21
-1120.313252859554
 31
0.0
 11
-932.1707558246229
 21
-1120.777618373567
 31
0.0
 11
-931.633339501621
 21
-1121.56895643373
 31
0.0
  0
SPLINE
  5
E4
330
76
100
AcDbEntity
  8
0
  6
Continuous
 62
     7
100
AcDbSpline
210
0.0
220
0.0
230
1.0
 70
  1064
 71
     3
 72
     9
 73
     5
 74
     3
 42
0.000000001
 43
0.0000000001
 44
0.00000001
 40
0.0
 40
0.0
 40
0.0
 40
0.0
 40
0.3479328727468408
 40
0.7550808710339624
 40
0.7550808710339624
 40
0.7550808710339624
 40
0.7550808710339624
 10
-931.633339501621
 20
-1121.56895643373
 30
0.0
 10
-931.6526280628476
 20
-1121.686374264913
 30
0.0
 10
-931.6944879475668
 20
-1121.941193406443
 30
0.0
 10
-931.8810676133988
 20
-1122.121651454191
 30
0.0
 10
-931.9816734517815
 20
-1122.21895643373
 30
0.0
 11
-931.633339501621
 21
-1121.56895643373
 31
0.0
 11
-931.721933022825
 21
-1121.90542110266
 31
0.0
 11
-931.9816734517815
 21
-1122.21895643373
 31
0.0
  0
SPLINE
  5
E5
330
76
100
AcDbEntity
  8
0
  6
Continuous
 62
     7
100
AcDbSpline
210
0.0
220
0.0
230
1.0
 70
  1064
 71
     3
 72
    11
 73
     7
 74
     5
 42
0.000000001
 43
0.0000000001
 44
0.00000001
 40
0.0
 40
0.0
 40
0.0
 40
0.0
 40
1.372222078496964
 40
3.040961420095567
 40
3.781124267407213
 40
4.414835005395294
 40
4.414835005395294
 40
4.414835005395294
 40
4.414835005395294
 10
-936.4850055514605
 20
-1122.651007241299
 30
0.0
 10
-936.0759429131663
 20
-1122.433301521396
 30
0.0
 10
-935.169425135224
 20
-1121.950847052467
 30
0.0
 10
-933.8617201248562
 20
-1121.974744399522
 30
0.0
 10
-932.8616460161858
 20
-1122.16424083638
 30
0.0
 10
-932.447404507847
 20
-1122.364463456548
 30
0.0
 10
-932.25633213339
 20
-1122.456817829373
 30
0.0
 11
-936.4850055514605
 21
-1122.651007241299
 31
0.0
 11
-935.2282513031697
 21
-1122.100042458967
 31
0.0
 11
-933.5604099843545
 21
-1122.045303667123
 31
0.0
 11
-932.8374928302056
 21
-1122.204148983056
 31
0.0
 11
-932.25633213339
 21
-1122.456817829373
 31
0.0
  0
SPLINE
  5
E6
330
76
100
AcDbEntity
  8
0
  6
Continuous
 62
     7
100
AcDbSpline
210
0.0
220
0.0
230
1.0
 70
  1064
 71
     3
 72
    11
 73
     7
 74
     5
 42
0.000000001
 43
0.0000000001
 44
0.00000001
 40
0.0
 40
0.0
 40
0.0
 40
0.0
 40
1.372222083859334
 40
3.04096143005177
 40
4.5061487826967
 40
5.462721948915018
 40
5.462721948915018
 40
5.462721948915018
 40
5.462721948915018
 10
-981.5183265482513
 20
-1107.91895643373
 30
0.0
 10
-981.1066570011222
 20
-1107.700272557242
 30
0.0
 10
-980.194362092469
 20
-1107.215650409515
 30
0.0
 10
-978.6842594825335
 20
-1107.262272792488
 30
0.0
 10
-977.2107264645937
 20
-1107.52958637758
 30
0.0
 10
-976.8207124480615
 20
-1108.274659419431
 30
0.0
 10
-976.6666604984117
 20
-1108.56895643373
 30
0.0
 11
-981.5183265482513
 21
-1107.91895643373
 31
0.0
 11
-980.2615722999604
 21
-1107.367991651398
 31
0.0
 11
-978.5937309811452
 21
-1107.313252859554
 31
0.0
 11
-977.2040768214137
 21
-1107.777618373567
 31
0.0
 11
-976.6666604984117
 21
-1108.56895643373
 31
0.0
  0
SPLINE
  5
E7
330
76
100
AcDbEntity
  8
0
  6
Continuous
 62
     7
100
AcDbSpline
210
0.0
220
0.0
230
1.0
 70
  1064
 71
     3
 72
     9
 73
     5
 74
     3
 42
0.000000001
 43
0.0000000001
 44
0.00000001
 40
0.0
 40
0.0
 40
0.0
 40
0.0
 40
0.3479328727468408
 40
0.7550808710339624
 40
0.7550808710339624
 40
0.7550808710339624
 40
0.7550808710339624
 10
-976.6666604984117
 20
-1108.56895643373
 30
0.0
 10
-976.6859490596382
 20
-1108.686374264913
 30
0.0
 10
-976.727808944358
 20
-1108.941193406443
 30
0.0
 10
-976.9143886101893
 20
-1109.121651454191
 30
0.0
 10
-977.0149944485722
 20
-1109.21895643373
 30
0.0
 11
-976.6666604984117
 21
-1108.56895643373
 31
0.0
 11
-976.7552540196158
 21
-1108.90542110266
 31
0.0
 11
-977.0149944485722
 21
-1109.21895643373
 31
0.0
  0
SPLINE
  5
E8
330
76
100
AcDbEntity
  8
0
  6
Continuous
 62
     7
100
AcDbSpline
210
0.0
220
0.0
230
1.0
 70
  1064
 71
     3
 72
    11
 73
     7
 74
     5
 42
0.000000001
 43
0.0000000001
 44
0.00000001
 40
0.0
 40
0.0
 40
0.0
 40
0.0
 40
1.372222078496964
 40
3.040961420095567
 40
3.781124267406929
 40
4.414835005395127
 40
4.414835005395127
 40
4.414835005395127
 40
4.414835005395127
 10
-981.5183265482513
 20
-1109.651007241299
 30
0.0
 10
-981.109263909957
 20
-1109.433301521396
 30
0.0
 10
-980.2027461320145
 20
-1108.950847052467
 30
0.0
 10
-978.8950411216467
 20
-1108.974744399522
 30
0.0
 10
-977.8949670129766
 20
-1109.16424083638
 30
0.0
 10
-977.4807255046378
 20
-1109.364463456548
 30
0.0
 10
-977.2896531301808
 20
-1109.456817829373
 30
0.0
 11
-981.5183265482513
 21
-1109.651007241299
 31
0.0
 11
-980.2615722999604
 21
-1109.100042458967
 31
0.0
 11
-978.5937309811452
 21
-1109.045303667123
 31
0.0
 11
-977.8708138269967
 21
-1109.204148983056
 31
0.0
 11
-977.2896531301808
 21
-1109.456817829373
 31
0.0
  0
SPLINE
  5
E9
330
76
100
AcDbEntity
  8
0
  6
Continuous
 62
     7
100
AcDbSpline
210
0.0
220
0.0
230
1.0
 70
  1064
 71
     3
 72
    11
 73
     7
 74
     5
 42
0.000000001
 43
0.0000000001
 44
0.00000001
 40
0.0
 40
0.0
 40
0.0
 40
0.0
 40
1.372222083859439
 40
3.04096143005176
 40
4.506148782696691
 40
5.462721948915009
 40
5.462721948915009
 40
5.462721948915009
 40
5.462721948915009
 10
-959.0016660498559
 20
-1114.41895643373
 30
0.0
 10
-958.5899965027272
 20
-1114.200272557242
 30
0.0
 10
-957.6777015940738
 20
-1113.715650409515
 30
0.0
 10
-956.1675989841378
 20
-1113.762272792488
 30
0.0
 10
-954.6940659661987
 20
-1114.02958637758
 30
0.0
 10
-954.3040519496658
 20
-1114.77465941943
 30
0.0
 10
-954.1500000000163
 20
-1115.06895643373
 30
0.0
 11
-959.0016660498559
 21
-1114.41895643373
 31
0.0
 11
-957.744911801565
 21
-1113.867991651398
 31
0.0
 11
-956.0770704827498
 21
-1113.813252859554
 31
0.0
 11
-954.6874163230183
 21
-1114.277618373567
 31
0.0
 11
-954.1500000000163
 21
-1115.06895643373
 31
0.0
  0
SPLINE
  5
EA
330
76
100
AcDbEntity
  8
0
  6
Continuous
 62
     7
100
AcDbSpline
210
0.0
220
0.0
230
1.0
 70
  1064
 71
     3
 72
     9
 73
     5
 74
     3
 42
0.000000001
 43
0.0000000001
 44
0.00000001
 40
0.0
 40
0.0
 40
0.0
 40
0.0
 40
0.3479328727468408
 40
0.7550808710338899
 40
0.7550808710338899
 40
0.7550808710338899
 40
0.7550808710338899
 10
-954.1500000000163
 20
-1115.06895643373
 30
0.0
 10
-954.1692885612428
 20
-1115.186374264912
 30
0.0
 10
-954.2111484459624
 20
-1115.441193406443
 30
0.0
 10
-954.3977281117944
 20
-1115.621651454191
 30
0.0
 10
-954.4983339501767
 20
-1115.71895643373
 30
0.0
 11
-954.1500000000163
 21
-1115.06895643373
 31
0.0
 11
-954.2385935212204
 21
-1115.40542110266
 31
0.0
 11
-954.4983339501767
 21
-1115.71895643373
 31
0.0
  0
SPLINE
  5
EB
330
76
100
AcDbEntity
  8
0
  6
Continuous
 62
     7
100
AcDbSpline
210
0.0
220
0.0
230
1.0
 70
  1064
 71
     3
 72
    11
 73
     7
 74
     5
 42
0.000000001
 43
0.0000000001
 44
0.00000001
 40
0.0
 40
0.0
 40
0.0
 40
0.0
 40
7.94200971168674
 40
16.98900848188875
 40
27.10193478244421
 40
37.38342743631687
 40
37.38342743631687
 40
37.38342743631687
 40
37.38342743631687
 10
-965.2477270848839
 20
-1048.748468796899
 30
0.0
 10
-962.8511825461209
 20
-1047.438622138588
 30
0.0
 10
-957.7246570174564
 20
-1044.63668702516
 30
0.0
 10
-948.3394827070545
 20
-1046.976950305628
 30
0.0
 10
-940.0537559220389
 20
-1052.634408646652
 30
0.0
 10
-936.7054124034296
 20
-1058.658294023227
 30
0.0
 10
-935.0174030883671
 20
-1061.695131379044
 30
0.0
 11
-965.2477270848839
 21
-1048.748468796899
 31
0.0
 11
-957.8927426330583
 21
-1045.751850362748
 31
0.0
 11
-948.985679240471
 21
-1047.336908276418
 31
0.0
 11
-940.6891736152111
 21
-1053.119578320555
 31
0.0
 11
-935.0174030883671
 21
-1061.695131379044
 31
0.0
  0
SPLINE
  5
EC
330
76
100
AcDbEntity
  8
0
  6
Continuous
 62
     7
100
AcDbSpline
210
0.0
220
0.0
230
1.0
 70
  1064
 71
     3
 72
     9
 73
     5
 74
     3
 42
0.000000001
 43
0.0000000001
 44
0.00000001
 40
0.0
 40
0.0
 40
0.0
 40
0.0
 40
2.18678386027416
 40
4.405412805622296
 40
4.405412805622296
 40
4.405412805622296
 40
4.405412805622296
 10
-966.2477270848839
 20
-1049.614494200683
 30
0.0
 10
-966.7780901495533
 20
-1050.119953702909
 30
0.0
 10
-967.8465396870326
 20
-1051.138233484881
 30
0.0
 10
-968.6020906435483
 20
-1052.406305696744
 30
0.0
 10
-968.9825969116655
 20
-1053.044925018944
 30
0.0
 11
-966.2477270848839
 21
-1049.614494200683
 31
0.0
 11
-967.7617184527033
 21
-1051.19242125657
 31
0.0
 11
-968.9825969116655
 21
-1053.044925018944
 31
0.0
  0
SPLINE
  5
ED
330
76
100
AcDbEntity
  8
0
  6
Continuous
 62
     7
100
AcDbSpline
210
0.0
220
0.0
230
1.0
 70
  1064
 71
     3
 72
     9
 73
     5
 74
     3
 42
0.000000001
 43
0.0000000001
 44
0.00000001
 40
0.0
 40
0.0
 40
0.0
 40
0.0
 40
2.124304321383565
 40
4.279543868267297
 40
4.279543868267297
 40
4.279543868267297
 40
4.279543868267297
 10
-939.1450651175736
 20
-1080.909952565847
 30
0.0
 10
-938.6298552833294
 20
-1080.418934763691
 30
0.0
 10
-937.5919328759312
 20
-1079.429748689413
 30
0.0
 10
-936.8579690891523
 20
-1078.197907112524
 30
0.0
 10
-936.4883344286998
 20
-1077.577534056679
 30
0.0
 11
-939.1450651175736
 21
-1080.909952565847
 31
0.0
 11
-937.6743306459773
 21
-1079.377109140129
 31
0.0
 11
-936.4883344286998
 21
-1077.577534056679
 31
0.0
  0
SPLINE
  5
EE
330
76
100
AcDbEntity
  8
0
  6
Continuous
 62
     7
100
AcDbSpline
210
0.0
220
0.0
230
1.0
 70
  1064
 71
     3
 72
     9
 73
     5
 74
     3
 42
0.000000001
 43
0.0000000001
 44
0.00000001
 40
0.0
 40
0.0
 40
0.0
 40
0.0
 40
2.081526828059171
 40
4.13536617426614
 40
4.13536617426614
 40
4.13536617426614
 40
4.13536617426614
 10
-935.5577284495032
 20
-1076.838521843446
 30
0.0
 10
-935.920792813822
 20
-1077.433748837348
 30
0.0
 10
-936.6420922485966
 20
-1078.616285386408
 30
0.0
 10
-937.6463153450977
 20
-1079.57017543183
 30
0.0
 10
-938.1450651175736
 20
-1080.043927162063
 30
0.0
 11
-935.5577284495032
 21
-1076.838521843446
 31
0.0
 11
-936.7186027650384
 21
-1078.566273203776
 31
0.0
 11
-938.1450651175736
 21
-1080.043927162063
 31
0.0
  0
SPLINE
  5
EF
330
76
100
AcDbEntity
  8
0
  6
Continuous
 62
     7
100
AcDbSpline
210
0.0
220
0.0
230
1.0
 70
  1064
 71
     3
 72
    11
 73
     7
 74
     5
 42
0.000000001
 43
0.0000000001
 44
0.00000001
 40
0.0
 40
0.0
 40
0.0
 40
0.0
 40
0.9832964368561481
 40
2.103401040630299
 40
3.355477627240193
 40
4.628424337769498
 40
4.628424337769498
 40
4.628424337769498
 40
4.628424337769498
 10
-972.2544675899493
 20
-1066.730274499687
 30
0.0
 10
-971.9577525529146
 20
-1066.568103009258
 30
0.0
 10
-971.3230398669137
 20
-1066.221196770342
 30
0.0
 10
-970.1610659100143
 20
-1066.510943643849
 30
0.0
 10
-969.1352140273739
 20
-1067.211390869483
 30
0.0
 10
-968.7206572009811
 20
-1067.9572052417
 30
0.0
 10
-968.5116655713326
 20
-1068.333194628906
 30
0.0
 11
-972.2544675899493
 21
-1066.730274499687
 31
0.0
 11
-971.3438504673422
 21
-1066.359264598316
 31
0.0
 11
-970.2410711901646
 21
-1066.555509863818
 31
0.0
 11
-969.2138847794181
 21
-1067.271459488331
 31
0.0
 11
-968.5116655713326
 21
-1068.333194628906
 31
0.0
  0
SPLINE
  5
F0
330
76
100
AcDbEntity
  8
0
  6
Continuous
 62
     7
100
AcDbSpline
210
0.0
220
0.0
230
1.0
 70
  1064
 71
     3
 72
    13
 73
     9
 74
     7
 42
0.000000001
 43
0.0000000001
 44
0.00000001
 40
0.0
 40
0.0
 40
0.0
 40
0.0
 40
4.637621963306152
 40
9.749266676010835
 40
15.4507626229235
 40
21.50773847551155
 40
27.51420671833726
 40
33.08708623908134
 40
33.08708623908134
 40
33.08708623908134
 40
33.08708623908134
 10
-962.4180031112421
 20
-1054.036678534891
 30
0.0
 10
-961.0673547202
 20
-1053.216989858616
 30
0.0
 10
-958.2280048377537
 20
-1051.493830122778
 30
0.0
 10
-952.8138381574058
 20
-1051.953140593466
 30
0.0
 10
-947.6434053472635
 20
-1054.319954050496
 30
0.0
 10
-943.2543544769037
 20
-1058.408478428154
 30
0.0
 10
-940.0856712970992
 20
-1063.545472390126
 30
0.0
 10
-939.6090852608003
 20
-1067.414450136088
 30
0.0
 10
-939.379715132682
 20
-1069.276502067071
 30
0.0
 11
-962.4180031112421
 21
-1054.036678534891
 31
0.0
 11
-958.2355096556697
 21
-1052.033110214776
 31
0.0
 11
-953.1266817793849
 21
-1052.202784820314
 31
0.0
 11
-947.9166309876448
 21
-1054.518476255069
 31
0.0
 11
-943.4468339368782
 21
-1058.606002501916
 31
0.0
 11
-940.4393226796044
 21
-1063.805284836141
 31
0.0
 11
-939.379715132682
 21
-1069.276502067071
 31
0.0
  0
SPLINE
  5
F1
330
76
100
AcDbEntity
  8
0
  6
Continuous
 62
     7
100
AcDbSpline
210
0.0
220
0.0
230
1.0
 70
  1064
 71
     3
 72
     9
 73
     5
 74
     3
 42
0.000000001
 43
0.0000000001
 44
0.00000001
 40
0.0
 40
0.0
 40
0.0
 40
0.0
 40
4.422688314580323
 40
8.50516371810986
 40
8.50516371810986
 40
8.50516371810986
 40
8.50516371810986
 10
-939.379715132682
 20
-1069.276502067071
 30
0.0
 10
-939.5038523371452
 20
-1070.789578695771
 30
0.0
 10
-939.7425775769492
 20
-1073.699339344587
 30
0.0
 10
-941.6611046184463
 20
-1075.889871154447
 30
0.0
 10
-942.5819968887904
 20
-1076.94132559925
 30
0.0
 11
-939.379715132682
 21
-1069.276502067071
 31
0.0
 11
-940.2063458165294
 21
-1073.62125219331
 31
0.0
 11
-942.5819968887904
 21
-1076.94132559925
 31
0.0
  0
SPLINE
  5
F2
330
76
100
AcDbEntity
  8
0
  6
Continuous
 62
     7
100
AcDbSpline
210
0.0
220
0.0
230
1.0
 70
  1064
 71
     3
 72
    13
 73
     9
 74
     7
 42
0.000000001
 43
0.0000000001
 44
0.00000001
 40
0.0
 40
0.0
 40
0.0
 40
0.0
 40
6.032922329686407
 40
12.96440711345085
 40
20.6908156367407
 40
28.41722416003073
 40
35.34870894379493
 40
41.38163127348132
 40
41.38163127348132
 40
41.38163127348132
 40
41.38163127348132
 10
-942.5819968887904
 20
-1076.94132559925
 30
0.0
 10
-944.4175741860438
 20
-1077.913929967399
 30
0.0
 10
-948.3621254499611
 20
-1080.004001448464
 30
0.0
 10
-955.5177800964858
 20
-1077.936540483619
 30
0.0
 10
-961.4605625831689
 20
-1073.249076896281
 30
0.0
 10
-965.250979423299
 20
-1066.697609980796
 30
0.0
 10
-966.2749987216672
 20
-1059.319997037705
 30
0.0
 10
-963.6428571144482
 20
-1055.714485419477
 30
0.0
 10
-962.4180031112421
 20
-1054.036678534891
 30
0.0
 11
-942.5819968887904
 21
-1076.94132559925
 31
0.0
 11
-948.205452175407
 21
-1079.126022951293
 31
0.0
 11
-954.9795007778228
 21
-1077.657095820012
 31
0.0
 11
-961.0890956492348
 21
-1072.927377094828
 31
0.0
 11
-964.8975038890486
 21
-1066.204772287832
 31
0.0
 11
-965.383643473844
 21
-1059.290356210606
 31
0.0
 11
-962.4180031112421
 21
-1054.036678534891
 31
0.0
  0
SPLINE
  5
F3
330
76
100
AcDbEntity
  8
0
  6
Continuous
 62
     7
100
AcDbSpline
210
0.0
220
0.0
230
1.0
 70
  1064
 71
     3
 72
    11
 73
     7
 74
     5
 42
0.000000001
 43
0.0000000001
 44
0.00000001
 40
0.0
 40
0.0
 40
0.0
 40
0.0
 40
9.987735720937554
 40
19.81172126995148
 40
28.60023436081329
 40
36.31532950919045
 40
36.31532950919045
 40
36.31532950919045
 40
36.31532950919045
 10
-968.5116655713326
 20
-1068.333194628906
 30
0.0
 10
-966.8718850938378
 20
-1071.283265203138
 30
0.0
 10
-963.6192085325837
 20
-1077.135039568701
 30
0.0
 10
-955.5702167987323
 20
-1082.630856242919
 30
0.0
 10
-946.4531903259451
 20
-1084.904254857944
 30
0.0
 10
-941.473136955193
 20
-1082.1823750339
 30
0.0
 10
-939.1450651175736
 20
-1080.909952565847
 30
0.0
 11
-968.5116655713326
 21
-1068.333194628906
 31
0.0
 11
-963.0019456309699
 21
-1076.663731885724
 31
0.0
 11
-954.9424830235746
 21
-1082.281182785743
 31
0.0
 11
-946.2899071564899
 21
-1083.820953330451
 31
0.0
 11
-939.1450651175736
 21
-1080.909952565847
 31
0.0
  0
SPLINE
  5
F4
330
76
100
AcDbEntity
  8
0
  6
Continuous
 62
     7
100
AcDbSpline
210
0.0
220
0.0
230
1.0
 70
  1064
 71
     3
 72
    11
 73
     7
 74
     5
 42
0.000000001
 43
0.0000000001
 44
0.00000001
 40
0.0
 40
0.0
 40
0.0
 40
0.0
 40
1.430404344184533
 40
3.159575570317237
 40
4.962691301879977
 40
6.505228431040022
 40
6.505228431040022
 40
6.505228431040022
 40
6.505228431040022
 10
-936.1497314977651
 20
-1077.152814050609
 30
0.0
 10
-935.6852015502396
 20
-1076.963914015015
 30
0.0
 10
-934.6591158252049
 20
-1076.546658628281
 30
0.0
 10
-933.1082882200179
 20
-1077.513665807532
 30
0.0
 10
-932.0718664138599
 20
-1078.999725274175
 30
0.0
 10
-932.3011956098684
 20
-1080.135340883011
 30
0.0
 10
-932.4069294791486
 20
-1080.658924563834
 30
0.0
 11
-936.1497314977651
 21
-1077.152814050609
 31
0.0
 11
-934.7640789541045
 21
-1076.797815985088
 31
0.0
 11
-933.2230440575079
 21
-1077.582191280806
 31
0.0
 11
-932.2837238099975
 21
-1079.121315652992
 31
0.0
 11
-932.4069294791486
 21
-1080.658924563834
 31
0.0
  0
SPLINE
  5
F5
330
76
100
AcDbEntity
  8
0
  6
Continuous
 62
     7
100
AcDbSpline
210
0.0
220
0.0
230
1.0
 70
  1064
 71
     3
 72
     9
 73
     5
 74
     3
 42
0.000000001
 43
0.0000000001
 44
0.00000001
 40
0.0
 40
0.0
 40
0.0
 40
0.0
 40
2.704614333575924
 40
5.370407992014291
 40
5.370407992014291
 40
5.370407992014291
 40
5.370407992014291
 10
-932.4069294791486
 20
-1080.658924563834
 30
0.0
 10
-932.8707847393639
 20
-1081.437431928097
 30
0.0
 10
-933.7918373305242
 20
-1082.983272341422
 30
0.0
 10
-935.0943281986275
 20
-1084.224603882384
 30
0.0
 10
-935.7408660298921
 20
-1084.840783085143
 30
0.0
 11
-932.4069294791486
 21
-1080.658924563834
 31
0.0
 11
-933.8952384576929
 21
-1082.917214864633
 31
0.0
 11
-935.7408660298921
 21
-1084.840783085143
 31
0.0
  0
SPLINE
  5
F6
330
76
100
AcDbEntity
  8
0
  6
Continuous
 62
     7
100
AcDbSpline
210
0.0
220
0.0
230
1.0
 70
  1064
 71
     3
 72
    11
 73
     7
 74
     5
 42
0.000000001
 43
0.0000000001
 44
0.00000001
 40
0.0
 40
0.0
 40
0.0
 40
0.0
 40
9.681688030394598
 40
20.71041034220364
 40
33.03854907124589
 40
45.57217821095485
 40
45.57217821095485
 40
45.57217821095485
 40
45.57217821095485
 10
-935.7408660298921
 20
-1084.840783085143
 30
0.0
 10
-938.6623679440871
 20
-1086.437548535424
 30
0.0
 10
-944.9118466834177
 20
-1089.853240867481
 30
0.0
 10
-956.3528210821959
 20
-1087.000348485272
 30
0.0
 10
-966.453516592805
 20
-1080.1036373654
 30
0.0
 10
-970.535306784468
 20
-1072.760234237735
 30
0.0
 10
-972.5930705208841
 20
-1069.058184889765
 30
0.0
 11
-935.7408660298921
 21
-1084.840783085143
 31
0.0
 11
-944.7069423140225
 21
-1088.493803652488
 31
0.0
 11
-955.5650767354623
 21
-1086.561542576776
 31
0.0
 11
-965.6789121643507
 21
-1079.512192427733
 31
0.0
 11
-972.5930705208841
 21
-1069.058184889765
 31
0.0
  0
SPLINE
  5
F7
330
76
100
AcDbEntity
  8
0
  6
Continuous
 62
     7
100
AcDbSpline
210
0.0
220
0.0
230
1.0
 70
  1064
 71
     3
 72
    11
 73
     7
 74
     5
 42
0.000000001
 43
0.0000000001
 44
0.00000001
 40
0.0
 40
0.0
 40
0.0
 40
0.0
 40
10.28149265387272
 40
20.39441895442836
 40
29.44141772463033
 40
37.38342743631718
 40
37.38342743631718
 40
37.38342743631718
 40
37.38342743631718
 10
-936.0174030883671
 20
-1062.561156782829
 30
0.0
 10
-937.70541240343
 20
-1059.524319427012
 30
0.0
 10
-941.0537559220388
 20
-1053.500434050437
 30
0.0
 10
-949.3394827070543
 20
-1047.842975709413
 30
0.0
 10
-958.7246570174563
 20
-1045.502712428944
 30
0.0
 10
-963.851182546121
 20
-1048.304647542373
 30
0.0
 10
-966.2477270848839
 20
-1049.614494200683
 30
0.0
 11
-936.0174030883671
 21
-1062.561156782829
 31
0.0
 11
-941.6891736152112
 21
-1053.98560372434
 31
0.0
 11
-949.985679240471
 21
-1048.202933680203
 31
0.0
 11
-958.8927426330582
 21
-1046.617875766533
 31
0.0
 11
-966.2477270848839
 21
-1049.614494200683
 31
0.0
  0
SPLINE
  5
F8
330
76
100
AcDbEntity
  8
0
  6
Continuous
 62
     7
100
AcDbSpline
210
0.0
220
0.0
230
1.0
 70
  1064
 71
     3
 72
    13
 73
     9
 74
     7
 42
0.000000001
 43
0.0000000001
 44
0.00000001
 40
0.0
 40
0.0
 40
0.0
 40
0.0
 40
5.743309078466718
 40
12.33429589888341
 40
20.06070442201915
 40
27.78711294515495
 40
34.37806621298613
 40
40.12134712040888
 40
40.12134712040888
 40
40.12134712040888
 40
40.12134712040888
 10
-961.9014532403262
 20
-1053.623256520324
 30
0.0
 10
-962.9613993135645
 20
-1055.282289414131
 30
0.0
 10
-965.2377330875753
 20
-1058.845218446009
 30
0.0
 10
-964.1940293514689
 20
-1065.918885148413
 30
0.0
 10
-960.4636446506054
 20
-1072.385720253168
 30
0.0
 10
-954.5960572987699
 20
-1077.001671022896
 30
0.0
 10
-947.7440726666309
 20
-1079.045190904958
 30
0.0
 10
-943.8925073177113
 20
-1077.301227259777
 30
0.0
 10
-942.0990743901134
 20
-1076.489172531203
 30
0.0
 11
-961.9014532403262
 21
-1053.623256520324
 31
0.0
 11
-964.4486044612702
 21
-1058.770840406674
 31
0.0
 11
-963.8975038890486
 21
-1065.338746884047
 31
0.0
 11
-960.0890956492349
 21
-1072.061351691044
 31
0.0
 11
-953.9795007778228
 21
-1076.791070416227
 31
0.0
 11
-947.5577225256318
 21
-1078.274791794297
 31
0.0
 11
-942.0990743901134
 21
-1076.489172531203
 31
0.0
  0
SPLINE
  5
F9
330
76
100
AcDbEntity
  8
0
  6
Continuous
 62
     7
100
AcDbSpline
210
0.0
220
0.0
230
1.0
 70
  1064
 71
     3
 72
    11
 73
     7
 74
     5
 42
0.000000001
 43
0.0000000001
 44
0.00000001
 40
0.0
 40
0.0
 40
0.0
 40
0.0
 40
12.53362913973716
 40
24.86176786877935
 40
35.55210373928193
 40
44.94028340583971
 40
44.94028340583971
 40
44.94028340583971
 40
44.94028340583971
 10
-971.5930705208841
 20
-1068.192159485981
 30
0.0
 10
-969.5363959799118
 20
-1071.894039816474
 30
0.0
 10
-965.4567663216435
 20
-1079.237107680211
 30
0.0
 10
-955.4360074798788
 20
-1086.071168054415
 30
0.0
 10
-944.2929442915085
 20
-1088.91162556214
 30
0.0
 10
-938.1318801917179
 20
-1085.83509057928
 30
0.0
 10
-935.2511305388798
 20
-1084.396584667668
 30
0.0
 11
-971.5930705208841
 21
-1068.192159485981
 31
0.0
 11
-964.6789121643505
 21
-1078.646167023948
 31
0.0
 11
-954.5650767354623
 21
-1085.695517172991
 31
0.0
 11
-944.0558079990489
 21
-1087.654739413875
 31
0.0
 11
-935.2511305388798
 21
-1084.396584667668
 31
0.0
  0
SPLINE
  5
FA
330
76
100
AcDbEntity
  8
0
  6
Continuous
 62
     7
100
AcDbSpline
210
0.0
220
0.0
230
1.0
 70
  1064
 71
     3
 72
    11
 73
     7
 74
     5
 42
0.000000001
 43
0.0000000001
 44
0.00000001
 40
0.0
 40
0.0
 40
0.0
 40
0.0
 40
1.372222078497068
 40
3.040961420095786
 40
3.781124267407146
 40
4.414835005395241
 40
4.414835005395241
 40
4.414835005395241
 40
4.414835005395241
 10
-959.0016660498559
 20
-1116.151007241299
 30
0.0
 10
-958.5926034115618
 20
-1115.933301521396
 30
0.0
 10
-957.6860856336195
 20
-1115.450847052467
 30
0.0
 10
-956.3783806232507
 20
-1115.474744399521
 30
0.0
 10
-955.3783065145813
 20
-1115.66424083638
 30
0.0
 10
-954.9640650062423
 20
-1115.864463456548
 30
0.0
 10
-954.7729926317853
 20
-1115.956817829373
 30
0.0
 11
-959.0016660498559
 21
-1116.151007241299
 31
0.0
 11
-957.744911801565
 21
-1115.600042458967
 31
0.0
 11
-956.0770704827496
 21
-1115.545303667123
 31
0.0
 11
-955.3541533286011
 21
-1115.704148983056
 31
0.0
 11
-954.7729926317853
 21
-1115.956817829373
 31
0.0
  0
SPLINE
  5
FB
330
76
100
AcDbEntity
  8
0
  6
Continuous
 62
     7
100
AcDbSpline
210
0.0
220
0.0
230
1.0
 70
  1064
 71
     3
 72
     9
 73
     5
 74
     3
 42
0.000000001
 43
0.0000000001
 44
0.00000001
 40
0.0
 40
0.0
 40
0.0
 40
0.0
 40
0.8493678849286673
 40
1.814687186635217
 40
1.814687186635217
 40
1.814687186635217
 40
1.814687186635217
 10
-971.6535939012368
 20
-1066.413794640316
 30
0.0
 10
-971.7294306251389
 20
-1066.693058926453
 30
0.0
 10
-971.8914569003721
 20
-1067.28971125135
 30
0.0
 10
-971.6966811244132
 20
-1067.878796657039
 30
0.0
 10
-971.5930705208841
 20
-1068.192159485981
 30
0.0
 11
-971.6535939012368
 21
-1066.413794640316
 31
0.0
 11
-971.8029385002435
 21
-1067.249929795681
 31
0.0
 11
-971.5930705208841
 21
-1068.192159485981
 31
0.0
  0
SPLINE
  5
FC
330
76
100
AcDbEntity
  8
0
  6
Continuous
 62
     7
100
AcDbSpline
210
0.0
220
0.0
230
1.0
 70
  1064
 71
     3
 72
     9
 73
     5
 74
     3
 42
0.000000001
 43
0.0000000001
 44
0.00000001
 40
0.0
 40
0.0
 40
0.0
 40
0.0
 40
1.331047452876716
 40
2.471021140419039
 40
2.471021140419039
 40
2.471021140419039
 40
2.471021140419039
 10
-972.5930705208841
 20
-1069.058184889765
 30
0.0
 10
-972.7284890242161
 20
-1068.606641711741
 30
0.0
 10
-972.9798864927277
 20
-1067.768375025265
 30
0.0
 10
-972.4834788516322
 20
-1067.057997837233
 30
0.0
 10
-972.2544675899493
 20
-1066.730274499687
 30
0.0
 11
-972.5930705208841
 21
-1069.058184889765
 31
0.0
 11
-972.7823445826388
 21
-1067.740663482148
 31
0.0
 11
-972.2544675899493
 21
-1066.730274499687
 31
0.0
  0
ENDBLK
  5
78
330
76
100
AcDbEntity
  8
0
100
AcDbBlockEnd
  0
BLOCK
  5
7B
330
79
100
AcDbEntity
  8
0
100
AcDbBlockBegin
  2
Allg1
 70
     0
 10
-958.0000000000089
 20
-1085.000000000015
 30
0.0
  3
Allg1
  1

  0
INSERT
  5
7A
330
79
100
AcDbEntity
  8
0
100
AcDbBlockReference
  2
PLD_M_ME_MB_D70-select__1
 10
-994.8108891324716
 20
-1132.262704120628
 30
0.0
  0
MTEXT
  5
FE
330
79
100
AcDbEntity
  8
1
 62
     6
100
AcDbMText
 10
-958.000000000007
 20
-1137.262704120613
 30
0.0
 40
5.0
 41
0.0
 71
     2
 72
     1
  1
 
  7
CONVERTER_11
 73
     1
 44
1.32052821128451
  0
ENDBLK
  5
7C
330
79
100
AcDbEntity
  8
0
100
AcDbBlockEnd
  0
BLOCK
  5
7E
330
7D
100
AcDbEntity
  8
0
100
AcDbBlockBegin
  2
PLD_M_ME_MB_D70-select__2
 70
     0
 10
-1168.0
 20
-1058.970640182525
 30
0.0
  3
PLD_M_ME_MB_D70-select__2
  1

  0
LINE
  5
FF
330
7D
100
AcDbEntity
  8
0
  6
Continuous
 62
     7
100
AcDbLine
 10
-1152.032463527769
 20
-1034.970640182525
 30
0.0
 11
-1168.0
 21
-1034.970640182525
 31
0.0
  0
LINE
  5
100
330
7D
100
AcDbEntity
  8
0
  6
Continuous
 62
     2
100
AcDbLine
 10
-1152.032463527769
 20
-1032.970640182525
 30
0.0
 11
-1152.032463527769
 21
-1034.970640182525
 31
0.0
  0
LINE
  5
101
330
7D
100
AcDbEntity
  8
0
  6
Continuous
 62
     7
100
AcDbLine
 10
-1168.0
 20
-1032.970640182525
 30
0.0
 11
-1168.0
 21
-1034.970640182525
 31
0.0
  0
LINE
  5
102
330
7D
100
AcDbEntity
  8
0
  6
Continuous
 62
     7
100
AcDbLine
 10
-1168.0
 20
-1032.970640182525
 30
0.0
 11
-1152.032463527769
 21
-1032.970640182525
 31
0.0
  0
LINE
  5
103
330
7D
100
AcDbEntity
  8
0
  6
Continuous
 62
     7
100
AcDbLine
 10
-1113.96753647223
 20
-1032.970640182525
 30
0.0
 11
-1098.0
 21
-1032.970640182525
 31
0.0
  0
LINE
  5
104
330
7D
100
AcDbEntity
  8
0
  6
Continuous
 62
     7
100
AcDbLine
 10
-1152.032463527769
 20
-1032.970640182525
 30
0.0
 11
-1113.96753647223
 21
-1032.970640182525
 31
0.0
  0
LINE
  5
105
330
7D
100
AcDbEntity
  8
0
  6
Continuous
 62
     7
100
AcDbLine
 10
-1113.96753647223
 20
-1034.970640182525
 30
0.0
 11
-1152.032463527769
 21
-1034.970640182525
 31
0.0
  0
LINE
  5
106
330
7D
100
AcDbEntity
  8
0
  6
Continuous
 62
     7
100
AcDbLine
 10
-1098.0
 20
-1032.970640182525
 30
0.0
 11
-1098.0
 21
-1034.970640182525
 31
0.0
  0
LINE
  5
107
330
7D
100
AcDbEntity
  8
0
  6
Continuous
 62
     7
100
AcDbLine
 10
-1098.0
 20
-1034.970640182525
 30
0.0
 11
-1098.0
 21
-1058.970640182525
 31
0.0
  0
LINE
  5
108
330
7D
100
AcDbEntity
  8
0
  6
Continuous
 62
     7
100
AcDbLine
 10
-1098.0
 20
-1034.970640182525
 30
0.0
 11
-1113.96753647223
 21
-1034.970640182525
 31
0.0
  0
LINE
  5
109
330
7D
100
AcDbEntity
  8
0
  6
Continuous
 62
     2
100
AcDbLine
 10
-1113.96753647223
 20
-1034.970640182525
 30
0.0
 11
-1113.96753647223
 21
-1032.970640182525
 31
0.0
  0
LINE
  5
10A
330
7D
100
AcDbEntity
  8
0
  6
Continuous
 62
     7
100
AcDbLine
 10
-1161.6
 20
-1058.970640182525
 30
0.0
 11
-1161.6
 21
-1043.470640182525
 31
0.0
  0
LINE
  5
10B
330
7D
100
AcDbEntity
  8
0
  6
Continuous
 62
     7
100
AcDbLine
 10
-1168.0
 20
-1058.970640182525
 30
0.0
 11
-1168.0
 21
-1034.970640182525
 31
0.0
  0
LINE
  5
10C
330
7D
100
AcDbEntity
  8
0
  6
Continuous
 62
     7
100
AcDbLine
 10
-1161.6
 20
-1058.970640182525
 30
0.0
 11
-1168.0
 21
-1058.970640182525
 31
0.0
  0
LINE
  5
10D
330
7D
100
AcDbEntity
  8
0
  6
Continuous
 62
     7
100
AcDbLine
 10
-1135.6
 20
-1058.970640182525
 30
0.0
 11
-1156.4
 21
-1058.970640182525
 31
0.0
  0
LINE
  5
10E
330
7D
100
AcDbEntity
  8
0
  6
Continuous
 62
     7
100
AcDbLine
 10
-1109.6
 20
-1058.970640182525
 30
0.0
 11
-1130.4
 21
-1058.970640182525
 31
0.0
  0
LINE
  5
10F
330
7D
100
AcDbEntity
  8
0
  6
Continuous
 62
     7
100
AcDbLine
 10
-1098.0
 20
-1058.970640182525
 30
0.0
 11
-1104.4
 21
-1058.970640182525
 31
0.0
  0
LINE
  5
110
330
7D
100
AcDbEntity
  8
0
  6
Continuous
 62
     7
100
AcDbLine
 10
-1156.4
 20
-1043.470640182525
 30
0.0
 11
-1156.4
 21
-1058.970640182525
 31
0.0
  0
LINE
  5
111
330
7D
100
AcDbEntity
  8
0
  6
Continuous
 62
     7
100
AcDbLine
 10
-1135.6
 20
-1058.970640182525
 30
0.0
 11
-1135.6
 21
-1043.470640182525
 31
0.0
  0
LINE
  5
112
330
7D
100
AcDbEntity
  8
0
  6
Continuous
 62
     7
100
AcDbLine
 10
-1130.4
 20
-1043.470640182525
 30
0.0
 11
-1130.4
 21
-1058.970640182525
 31
0.0
  0
LINE
  5
113
330
7D
100
AcDbEntity
  8
0
  6
Continuous
 62
     7
100
AcDbLine
 10
-1109.6
 20
-1058.970640182525
 30
0.0
 11
-1109.6
 21
-1043.470640182525
 31
0.0
  0
LINE
  5
114
330
7D
100
AcDbEntity
  8
0
  6
Continuous
 62
     7
100
AcDbLine
 10
-1104.4
 20
-1043.470640182525
 30
0.0
 11
-1104.4
 21
-1058.970640182525
 31
0.0
  0
ARC
  5
115
330
7D
100
AcDbEntity
  8
0
  6
Continuous
 62
     7
100
AcDbCircle
 10
-1107.0
 20
-1043.470640182525
 30
0.0
 40
2.599999999999909
100
AcDbArc
 50
0.0
 51
180.0
  0
ARC
  5
116
330
7D
100
AcDbEntity
  8
0
  6
Continuous
 62
     7
100
AcDbCircle
 10
-1159.0
 20
-1043.470640182525
 30
0.0
 40
2.599999999999909
100
AcDbArc
 50
0.0
 51
180.0
  0
ARC
  5
117
330
7D
100
AcDbEntity
  8
0
  6
Continuous
 62
     7
100
AcDbCircle
 10
-1133.0
 20
-1043.470640182525
 30
0.0
 40
2.599999999999909
100
AcDbArc
 50
0.0
 51
180.0
  0
ENDBLK
  5
7F
330
7D
100
AcDbEntity
  8
0
100
AcDbBlockEnd
  0
BLOCK
  5
82
330
80
100
AcDbEntity
  8
0
100
AcDbBlockBegin
  2
Drfsicht1
 70
     0
 10
-1133.0
 20
-1045.97064018251
 30
0.0
  3
Drfsicht1
  1

  0
INSERT
  5
81
330
80
100
AcDbEntity
  8
0
100
AcDbBlockReference
  2
PLD_M_ME_MB_D70-select__2
 10
-1168.0
 20
-1058.970640182525
 30
0.0
  0
MTEXT
  5
118
330
80
100
AcDbEntity
  8
1
 62
     6
100
AcDbMText
 10
-1133.0
 20
-1063.97064018251
 30
0.0
 40
5.0
 41
0.0
 71
     2
 72
     1
  1
 
  7
CONVERTER_11
 73
     1
 44
1.32052821128451
  0
ENDBLK
  5
83
330
80
100
AcDbEntity
  8
0
100
AcDbBlockEnd
  0
BLOCK
  5
85
330
84
100
AcDbEntity
  8
0
100
AcDbBlockBegin
  2
PLD_M_ME_MB_D70-select__3
 70
     0
 10
-1007.0
 20
-995.9706401825152
 30
0.0
  3
PLD_M_ME_MB_D70-select__3
  1

  0
LINE
  5
119
330
84
100
AcDbEntity
  8
0
  6
Continuous
 62
     7
100
AcDbLine
 10
-1007.0
 20
-995.9706401825152
 30
0.0
 11
-937.0
 21
-995.9706401825152
 31
0.0
  0
LINE
  5
11A
330
84
100
AcDbEntity
  8
0
  6
Continuous
 62
     7
100
AcDbLine
 10
-1007.0
 20
-995.9706401825152
 30
0.0
 11
-1007.0
 21
-966.3381491541475
 31
0.0
  0
LINE
  5
11B
330
84
100
AcDbEntity
  8
0
  6
Continuous
 62
     7
100
AcDbLine
 10
-991.0324635277696
 20
-932.0956566859602
 30
0.0
 11
-1007.0
 21
-966.3381491541475
 31
0.0
  0
LINE
  5
11C
330
84
100
AcDbEntity
  8
0
  6
Continuous
 62
     7
100
AcDbLine
 10
-937.0
 20
-966.3381491541473
 30
0.0
 11
-952.9675364722306
 21
-932.09565668596
 31
0.0
  0
LINE
  5
11D
330
84
100
AcDbEntity
  8
0
  6
Continuous
 62
     7
100
AcDbLine
 10
-937.0
 20
-966.3381491541473
 30
0.0
 11
-937.0
 21
-995.9706401825152
 31
0.0
  0
LINE
  5
11E
330
84
100
AcDbEntity
  8
1
  6
DOT_CENTER
 62
     2
100
AcDbLine
 10
-955.335
 20
-940.9706401825151
 30
0.0
 11
-988.665
 21
-940.9706401825151
 31
0.0
  0
LINE
  5
11F
330
84
100
AcDbEntity
  8
1
  6
DOT_CENTER
 62
     2
100
AcDbLine
 10
-972.0
 20
-924.3056401825152
 30
0.0
 11
-972.0
 21
-957.6356401825151
 31
0.0
  0
ARC
  5
120
330
84
100
AcDbEntity
  8
0
  6
Continuous
 62
     7
100
AcDbCircle
 10
-992.8450791018429
 20
-950.6908602025513
 30
0.0
 40
2.600000000000014
100
AcDbArc
 50
25.00000000000786
 51
205.0
  0
ARC
  5
121
330
84
100
AcDbEntity
  8
0
  6
Continuous
 62
     7
100
AcDbCircle
 10
-951.154920898157
 20
-950.6908602025512
 30
0.0
 40
2.600000000000076
100
AcDbArc
 50
335.000000000001
 51
155.0000000000112
  0
ARC
  5
122
330
84
100
AcDbEntity
  8
0
  6
Continuous
 62
     7
100
AcDbCircle
 10
-972.0
 20
-940.9706401825151
 30
0.0
 40
20.39999999999998
100
AcDbArc
 50
204.9999999999994
 51
334.9999999999986
  0
ARC
  5
123
330
84
100
AcDbEntity
  8
0
  6
Continuous
 62
     7
100
AcDbCircle
 10
-972.0
 20
-940.9706401825151
 30
0.0
 40
21.00000000000001
100
AcDbArc
 50
25.00000000000141
 51
154.9999999999993
  0
ARC
  5
124
330
84
100
AcDbEntity
  8
0
  6
Continuous
 62
     7
100
AcDbCircle
 10
-972.0
 20
-940.9706401825151
 30
0.0
 40
25.59999999999997
100
AcDbArc
 50
205.0000000000003
 51
335.0000000000001
  0
CIRCLE
  5
125
330
84
100
AcDbEntity
  8
0
  6
Continuous
 62
     7
100
AcDbCircle
 10
-972.0
 20
-940.9706401825151
 30
0.0
 40
15.14999999999998
  0
ENDBLK
  5
86
330
84
100
AcDbEntity
  8
0
100
AcDbBlockEnd
  0
BLOCK
  5
89
330
87
100
AcDbEntity
  8
0
100
AcDbBlockBegin
  2
Rckans1
 70
     0
 10
-972.0
 20
-958.00000000001
 30
0.0
  3
Rckans1
  1

  0
INSERT
  5
88
330
87
100
AcDbEntity
  8
0
100
AcDbBlockReference
  2
PLD_M_ME_MB_D70-select__3
 10
-1007.0
 20
-995.9706401825152
 30
0.0
  0
MTEXT
  5
126
330
87
100
AcDbEntity
  8
1
 62
     6
100
AcDbMText
 10
-972.0
 20
-1000.970640182505
 30
0.0
 40
5.0
 41
0.0
 71
     2
 72
     1
  1
 
  7
CONVERTER_11
 73
     1
 44
1.32052821128451
  0
ENDBLK
  5
8A
330
87
100
AcDbEntity
  8
0
100
AcDbBlockEnd
  0
BLOCK
  5
8C
330
8B
100
AcDbEntity
  8
0
100
AcDbBlockBegin
  2
PLD_M_ME_MB_D70-select__4
 70
     0
 10
-1058.999999999965
 20
-995.9706401825151
 30
0.0
  3
PLD_M_ME_MB_D70-select__4
  1

  0
LINE
  5
127
330
8B
100
AcDbEntity
  8
0
  6
Continuous
 62
     7
100
AcDbLine
 10
-1056.999999999965
 20
-919.9706401825151
 30
0.0
 11
-1056.999999999965
 21
-932.0956566859599
 31
0.0
  0
LINE
  5
128
330
8B
100
AcDbEntity
  8
0
  6
Continuous
 62
     7
100
AcDbLine
 10
-1056.999999999965
 20
-919.9706401825151
 30
0.0
 11
-1058.999999999965
 21
-919.9706401825151
 31
0.0
  0
LINE
  5
129
330
8B
100
AcDbEntity
  8
0
  6
Continuous
 62
     7
100
AcDbLine
 10
-1058.999999999965
 20
-966.3381491541472
 30
0.0
 11
-1058.999999999965
 21
-932.0956566859599
 31
0.0
  0
LINE
  5
12A
330
8B
100
AcDbEntity
  8
0
  6
Continuous
 62
     7
100
AcDbLine
 10
-1056.999999999965
 20
-932.0956566859599
 30
0.0
 11
-1056.999999999965
 21
-966.3381491541472
 31
0.0
  0
LINE
  5
12B
330
8B
100
AcDbEntity
  8
0
  6
Continuous
 62
     2
100
AcDbLine
 10
-1058.999999999965
 20
-932.0956566859599
 30
0.0
 11
-1056.999999999965
 21
-932.0956566859599
 31
0.0
  0
LINE
  5
12C
330
8B
100
AcDbEntity
  8
0
  6
Continuous
 62
     7
100
AcDbLine
 10
-1058.999999999965
 20
-932.0956566859599
 30
0.0
 11
-1058.999999999965
 21
-919.9706401825151
 31
0.0
  0
LINE
  5
12D
330
8B
100
AcDbEntity
  8
0
  6
Continuous
 62
     7
100
AcDbLine
 10
-1056.999999999965
 20
-966.3381491541472
 30
0.0
 11
-1056.999999999965
 21
-993.9706401825151
 31
0.0
  0
LINE
  5
12E
330
8B
100
AcDbEntity
  8
0
  6
Continuous
 62
     7
100
AcDbLine
 10
-1032.999999999965
 20
-993.9706401825151
 30
0.0
 11
-1032.999999999965
 21
-995.9706401825151
 31
0.0
  0
LINE
  5
12F
330
8B
100
AcDbEntity
  8
0
  6
Continuous
 62
     7
100
AcDbLine
 10
-1032.999999999965
 20
-995.9706401825151
 30
0.0
 11
-1058.999999999965
 21
-995.9706401825151
 31
0.0
  0
LINE
  5
130
330
8B
100
AcDbEntity
  8
0
  6
Continuous
 62
     7
100
AcDbLine
 10
-1032.999999999965
 20
-993.9706401825151
 30
0.0
 11
-1056.999999999965
 21
-993.9706401825151
 31
0.0
  0
LINE
  5
131
330
8B
100
AcDbEntity
  8
0
  6
Continuous
 62
     7
100
AcDbLine
 10
-1058.999999999965
 20
-966.3381491541472
 30
0.0
 11
-1056.999999999965
 21
-966.3381491541472
 31
0.0
  0
LINE
  5
132
330
8B
100
AcDbEntity
  8
0
  6
Continuous
 62
     7
100
AcDbLine
 10
-1058.999999999965
 20
-966.3381491541472
 30
0.0
 11
-1058.999999999965
 21
-995.9706401825151
 31
0.0
  0
ENDBLK
  5
8D
330
8B
100
AcDbEntity
  8
0
100
AcDbBlockEnd
  0
BLOCK
  5
90
330
8E
100
AcDbEntity
  8
0
100
AcDbBlockBegin
  2
SA_Links1
 70
     0
 10
-1045.99999999998
 20
-958.00000000001
 30
0.0
  3
SA_Links1
  1

  0
INSERT
  5
8F
330
8E
100
AcDbEntity
  8
0
100
AcDbBlockReference
  2
PLD_M_ME_MB_D70-select__4
 10
-1058.999999999965
 20
-995.9706401825151
 30
0.0
  0
MTEXT
  5
133
330
8E
100
AcDbEntity
  8
1
 62
     6
100
AcDbMText
 10
-1045.99999999998
 20
-1000.970640182505
 30
0.0
 40
5.0
 41
0.0
 71
     2
 72
     1
  1
 
  7
CONVERTER_11
 73
     1
 44
1.32052821128451
  0
DIMENSION
  5
13E
330
8E
100
AcDbEntity
  8
1
100
AcDbDimension
  2
*D17
 10
-1058.999999999965
 20
-1006.64403291917
 30
0.0
 11
-1045.99999999998
 21
-1003.39403291917
 31
0.0
 70
    32
  1
<>
 71
     5
 42
-1.0
 53
0.00013888888889
  3
ME10_DIM_10
100
AcDbAlignedDimension
 13
-1032.999999999965
 23
-995.9706401825151
 33
0.0
 14
-1058.999999999965
 24
-995.9706401825151
 34
0.0
100
AcDbRotatedDimension
  0
ENDBLK
  5
91
330
8E
100
AcDbEntity
  8
0
100
AcDbBlockEnd
  0
BLOCK
  5
93
330
92
100
AcDbEntity
  8
0
100
AcDbBlockBegin
  2
PLD_M_ME_MB_D70-select__5
 70
     0
 10
-1223.00000000003
 20
-995.9706401825152
 30
0.0
  3
PLD_M_ME_MB_D70-select__5
  1

  0
LINE
  5
13F
330
92
100
AcDbEntity
  8
0
  6
Continuous
 62
     7
100
AcDbLine
 10
-1197.00000000003
 20
-966.3381491541475
 30
0.0
 11
-1199.00000000003
 21
-966.3381491541475
 31
0.0
  0
LINE
  5
140
330
92
100
AcDbEntity
  8
0
  6
Continuous
 62
     7
100
AcDbLine
 10
-1197.00000000003
 20
-995.9706401825152
 30
0.0
 11
-1223.00000000003
 21
-995.9706401825152
 31
0.0
  0
LINE
  5
141
330
92
100
AcDbEntity
  8
0
  6
Continuous
 62
     7
100
AcDbLine
 10
-1199.00000000003
 20
-993.9706401825152
 30
0.0
 11
-1223.00000000003
 21
-993.9706401825152
 31
0.0
  0
LINE
  5
142
330
92
100
AcDbEntity
  8
0
  6
Continuous
 62
     7
100
AcDbLine
 10
-1223.00000000003
 20
-993.9706401825152
 30
0.0
 11
-1223.00000000003
 21
-995.9706401825152
 31
0.0
  0
LINE
  5
143
330
92
100
AcDbEntity
  8
0
  6
Continuous
 62
     7
100
AcDbLine
 10
-1199.00000000003
 20
-966.3381491541475
 30
0.0
 11
-1199.00000000003
 21
-932.0956566859602
 31
0.0
  0
LINE
  5
144
330
92
100
AcDbEntity
  8
0
  6
Continuous
 62
     7
100
AcDbLine
 10
-1197.00000000003
 20
-932.0956566859602
 30
0.0
 11
-1197.00000000003
 21
-966.3381491541475
 31
0.0
  0
LINE
  5
145
330
92
100
AcDbEntity
  8
0
  6
Continuous
 62
     7
100
AcDbLine
 10
-1197.00000000003
 20
-919.9706401825151
 30
0.0
 11
-1197.00000000003
 21
-932.0956566859602
 31
0.0
  0
LINE
  5
146
330
92
100
AcDbEntity
  8
0
  6
Continuous
 62
     7
100
AcDbLine
 10
-1199.00000000003
 20
-993.9706401825152
 30
0.0
 11
-1199.00000000003
 21
-966.3381491541475
 31
0.0
  0
LINE
  5
147
330
92
100
AcDbEntity
  8
0
  6
Continuous
 62
     7
100
AcDbLine
 10
-1199.00000000003
 20
-919.9706401825151
 30
0.0
 11
-1197.00000000003
 21
-919.9706401825151
 31
0.0
  0
LINE
  5
148
330
92
100
AcDbEntity
  8
0
  6
Continuous
 62
     2
100
AcDbLine
 10
-1199.00000000003
 20
-932.0956566859602
 30
0.0
 11
-1197.00000000003
 21
-932.0956566859602
 31
0.0
  0
LINE
  5
149
330
92
100
AcDbEntity
  8
0
  6
Continuous
 62
     7
100
AcDbLine
 10
-1199.00000000003
 20
-932.0956566859602
 30
0.0
 11
-1199.00000000003
 21
-919.9706401825151
 31
0.0
  0
LINE
  5
14A
330
92
100
AcDbEntity
  8
0
  6
Continuous
 62
     7
100
AcDbLine
 10
-1197.00000000003
 20
-995.9706401825152
 30
0.0
 11
-1197.00000000003
 21
-966.3381491541475
 31
0.0
  0
ENDBLK
  5
94
330
92
100
AcDbEntity
  8
0
100
AcDbBlockEnd
  0
BLOCK
  5
97
330
95
100
AcDbEntity
  8
0
100
AcDbBlockBegin
  2
SA_Rechts1
 70
     0
 10
-1210.000000000015
 20
-958.00000000001
 30
0.0
  3
SA_Rechts1
  1

  0
INSERT
  5
96
330
95
100
AcDbEntity
  8
0
100
AcDbBlockReference
  2
PLD_M_ME_MB_D70-select__5
 10
-1223.00000000003
 20
-995.9706401825152
 30
0.0
  0
MTEXT
  5
14B
330
95
100
AcDbEntity
  8
1
 62
     6
100
AcDbMText
 10
-1210.000000000015
 20
-1000.970640182505
 30
0.0
 40
5.0
 41
0.0
 71
     2
 72
     1
  1
 
  7
CONVERTER_11
 73
     1
 44
1.32052821128451
  0
ENDBLK
  5
98
330
95
100
AcDbEntity
  8
0
100
AcDbBlockEnd
  0
BLOCK
  5
9A
330
99
100
AcDbEntity
  8
0
100
AcDbBlockBegin
  2
PLD_M_ME_MB_D70-select__6
 70
     0
 10
-1168.000000000002
 20
-995.9706401825151
 30
0.0
  3
PLD_M_ME_MB_D70-select__6
  1

  0
LINE
  5
14C
330
99
100
AcDbEntity
  8
0
  6
Continuous
 62
     7
100
AcDbLine
 10
-1161.600000000002
 20
-993.9706401825151
 30
0.0
 11
-1168.000000000002
 21
-993.9706401825151
 31
0.0
  0
LINE
  5
14D
330
99
100
AcDbEntity
  8
0
  6
Continuous
 62
     7
100
AcDbLine
 10
-1098.000000000002
 20
-993.9706401825151
 30
0.0
 11
-1104.400000000002
 21
-993.9706401825151
 31
0.0
  0
LINE
  5
14E
330
99
100
AcDbEntity
  8
0
  6
Continuous
 62
     7
100
AcDbLine
 10
-1168.000000000002
 20
-966.3381491541472
 30
0.0
 11
-1168.000000000002
 21
-993.9706401825151
 31
0.0
  0
LINE
  5
14F
330
99
100
AcDbEntity
  8
0
  6
Continuous
 62
     7
100
AcDbLine
 10
-1168.000000000002
 20
-993.9706401825151
 30
0.0
 11
-1168.000000000002
 21
-995.9706401825151
 31
0.0
  0
LINE
  5
150
330
99
100
AcDbEntity
  8
0
  6
Continuous
 62
     7
100
AcDbLine
 10
-1109.600000000002
 20
-993.9706401825151
 30
0.0
 11
-1104.400000000002
 21
-993.9706401825151
 31
0.0
  0
LINE
  5
151
330
99
100
AcDbEntity
  8
0
  6
Continuous
 62
     7
100
AcDbLine
 10
-1104.400000000002
 20
-993.9706401825151
 30
0.0
 11
-1104.400000000002
 21
-995.9706401825151
 31
0.0
  0
LINE
  5
152
330
99
100
AcDbEntity
  8
0
  6
Continuous
 62
     7
100
AcDbLine
 10
-1161.600000000002
 20
-993.9706401825151
 30
0.0
 11
-1156.400000000002
 21
-993.9706401825151
 31
0.0
  0
LINE
  5
153
330
99
100
AcDbEntity
  8
0
  6
Continuous
 62
     7
100
AcDbLine
 10
-1135.600000000002
 20
-995.9706401825151
 30
0.0
 11
-1156.400000000002
 21
-995.9706401825151
 31
0.0
  0
LINE
  5
154
330
99
100
AcDbEntity
  8
0
  6
Continuous
 62
     7
100
AcDbLine
 10
-1156.400000000002
 20
-993.9706401825151
 30
0.0
 11
-1156.400000000002
 21
-995.9706401825151
 31
0.0
  0
LINE
  5
155
330
99
100
AcDbEntity
  8
0
  6
Continuous
 62
     7
100
AcDbLine
 10
-1135.600000000002
 20
-993.9706401825151
 30
0.0
 11
-1156.400000000002
 21
-993.9706401825151
 31
0.0
  0
LINE
  5
156
330
99
100
AcDbEntity
  8
0
  6
Continuous
 62
     7
100
AcDbLine
 10
-1135.600000000002
 20
-995.9706401825151
 30
0.0
 11
-1135.600000000002
 21
-993.9706401825151
 31
0.0
  0
LINE
  5
157
330
99
100
AcDbEntity
  8
0
  6
Continuous
 62
     7
100
AcDbLine
 10
-1109.600000000002
 20
-995.9706401825151
 30
0.0
 11
-1130.400000000002
 21
-995.9706401825151
 31
0.0
  0
LINE
  5
158
330
99
100
AcDbEntity
  8
0
  6
Continuous
 62
     7
100
AcDbLine
 10
-1130.400000000002
 20
-993.9706401825151
 30
0.0
 11
-1130.400000000002
 21
-995.9706401825151
 31
0.0
  0
LINE
  5
159
330
99
100
AcDbEntity
  8
0
  6
Continuous
 62
     7
100
AcDbLine
 10
-1109.600000000002
 20
-995.9706401825151
 30
0.0
 11
-1109.600000000002
 21
-993.9706401825151
 31
0.0
  0
LINE
  5
15A
330
99
100
AcDbEntity
  8
0
  6
Continuous
 62
     7
100
AcDbLine
 10
-1161.600000000002
 20
-995.9706401825151
 30
0.0
 11
-1161.600000000002
 21
-993.9706401825151
 31
0.0
  0
LINE
  5
15B
330
99
100
AcDbEntity
  8
0
  6
Continuous
 62
     7
100
AcDbLine
 10
-1109.600000000002
 20
-993.9706401825151
 30
0.0
 11
-1130.400000000002
 21
-993.9706401825151
 31
0.0
  0
LINE
  5
15C
330
99
100
AcDbEntity
  8
0
  6
Continuous
 62
     7
100
AcDbLine
 10
-1135.600000000002
 20
-993.9706401825151
 30
0.0
 11
-1130.400000000002
 21
-993.9706401825151
 31
0.0
  0
LINE
  5
15D
330
99
100
AcDbEntity
  8
0
  6
Continuous
 62
     7
100
AcDbLine
 10
-1098.000000000002
 20
-966.3381491541472
 30
0.0
 11
-1113.967536472232
 21
-932.0956566859601
 31
0.0
  0
LINE
  5
15E
330
99
100
AcDbEntity
  8
0
  6
Continuous
 62
     7
100
AcDbLine
 10
-1109.600000000002
 20
-995.9706401825151
 30
0.0
 11
-1104.400000000002
 21
-995.9706401825151
 31
0.0
  0
LINE
  5
15F
330
99
100
AcDbEntity
  8
0
  6
Continuous
 62
     7
100
AcDbLine
 10
-1135.600000000002
 20
-995.9706401825151
 30
0.0
 11
-1130.400000000002
 21
-995.9706401825151
 31
0.0
  0
LINE
  5
160
330
99
100
AcDbEntity
  8
0
  6
Continuous
 62
     7
100
AcDbLine
 10
-1161.600000000002
 20
-995.9706401825151
 30
0.0
 11
-1156.400000000002
 21
-995.9706401825151
 31
0.0
  0
LINE
  5
161
330
99
100
AcDbEntity
  8
0
  6
Continuous
 62
     7
100
AcDbLine
 10
-1161.600000000002
 20
-995.9706401825151
 30
0.0
 11
-1168.000000000002
 21
-995.9706401825151
 31
0.0
  0
LINE
  5
162
330
99
100
AcDbEntity
  8
0
  6
Continuous
 62
     7
100
AcDbLine
 10
-1098.000000000002
 20
-995.9706401825151
 30
0.0
 11
-1104.400000000002
 21
-995.9706401825151
 31
0.0
  0
LINE
  5
163
330
99
100
AcDbEntity
  8
0
  6
Continuous
 62
     7
100
AcDbLine
 10
-1098.000000000002
 20
-993.9706401825151
 30
0.0
 11
-1098.000000000002
 21
-966.3381491541472
 31
0.0
  0
LINE
  5
164
330
99
100
AcDbEntity
  8
0
  6
Continuous
 62
     7
100
AcDbLine
 10
-1098.000000000002
 20
-993.9706401825151
 30
0.0
 11
-1098.000000000002
 21
-995.9706401825151
 31
0.0
  0
LINE
  5
165
330
99
100
AcDbEntity
  8
0
  6
Continuous
 62
     7
100
AcDbLine
 10
-1152.032463527771
 20
-932.0956566859597
 30
0.0
 11
-1168.000000000002
 21
-966.3381491541472
 31
0.0
  0
LINE
  5
166
330
99
100
AcDbEntity
  8
1
  6
DOT_CENTER
 62
     2
100
AcDbLine
 10
-1116.335000000002
 20
-940.9706401825151
 30
0.0
 11
-1149.665000000002
 21
-940.9706401825151
 31
0.0
  0
LINE
  5
167
330
99
100
AcDbEntity
  8
1
  6
DOT_CENTER
 62
     2
100
AcDbLine
 10
-1133.000000000002
 20
-917.923096097009
 30
0.0
 11
-1133.000000000002
 21
-957.6356401825152
 31
0.0
  0
ARC
  5
168
330
99
100
AcDbEntity
  8
0
  6
Continuous
 62
     7
100
AcDbCircle
 10
-1133.000000000002
 20
-940.9706401825151
 30
0.0
 40
21.0
100
AcDbArc
 50
90.0
 51
154.9999999999974
  0
ARC
  5
169
330
99
100
AcDbEntity
  8
0
  6
Continuous
 62
     7
100
AcDbCircle
 10
-1153.845079101845
 20
-950.6908602025512
 30
0.0
 40
2.600000000000344
100
AcDbArc
 50
24.99999999998788
 51
204.9999999999988
  0
ARC
  5
16A
330
99
100
AcDbEntity
  8
0
  6
Continuous
 62
     7
100
AcDbCircle
 10
-1133.000000000002
 20
-940.9706401825151
 30
0.0
 40
25.59999999999977
100
AcDbArc
 50
204.9999999999999
 51
334.9999999999995
  0
ARC
  5
16B
330
99
100
AcDbEntity
  8
0
  6
Continuous
 62
     7
100
AcDbCircle
 10
-1112.154920898159
 20
-950.6908602025512
 30
0.0
 40
2.599999999999712
100
AcDbArc
 50
334.9999999999946
 51
154.9999999999921
  0
ARC
  5
16C
330
99
100
AcDbEntity
  8
0
  6
Continuous
 62
     7
100
AcDbCircle
 10
-1133.000000000002
 20
-940.9706401825151
 30
0.0
 40
20.3999999999996
100
AcDbArc
 50
205.0000000000016
 51
335.0000000000011
  0
ARC
  5
16D
330
99
100
AcDbEntity
  8
0
  6
Continuous
 62
     7
100
AcDbCircle
 10
-1133.000000000002
 20
-940.9706401825151
 30
0.0
 40
21.00000000000047
100
AcDbArc
 50
25.00000000000048
 51
90.0
  0
CIRCLE
  5
16E
330
99
100
AcDbEntity
  8
0
  6
Continuous
 62
     7
100
AcDbCircle
 10
-1133.000000000002
 20
-940.9706401825151
 30
0.0
 40
15.15000000000009
  0
ENDBLK
  5
9B
330
99
100
AcDbEntity
  8
0
100
AcDbBlockEnd
  0
BLOCK
  5
9E
330
9C
100
AcDbEntity
  8
0
100
AcDbBlockBegin
  2
Vordans1
 70
     0
 10
-1133.000000000002
 20
-958.0000000000099
 30
0.0
  3
Vordans1
  1

  0
INSERT
  5
9D
330
9C
100
AcDbEntity
  8
0
100
AcDbBlockReference
  2
PLD_M_ME_MB_D70-select__6
 10
-1168.000000000002
 20
-995.9706401825151
 30
0.0
  0
MTEXT
  5
16F
330
9C
100
AcDbEntity
  8
1
 62
     6
100
AcDbMText
 10
-1133.0
 20
-1000.970640182505
 30
0.0
 40
5.0
 41
0.0
 71
     2
 72
     1
  1
 
  7
CONVERTER_11
 73
     1
 44
1.32052821128451
  0
DIMENSION
  5
17A
330
9C
100
AcDbEntity
  8
1
100
AcDbDimension
  2
*D18
 10
-1084.436580970331
 20
-919.9706401825151
 30
0.0
 11
-1087.686580970331
 21
-956.4292127799231
 31
0.0
 70
    32
  1
<>
 71
     5
 42
-1.0
 53
90.0
  3
ME10_DIM_11
100
AcDbAlignedDimension
 13
-1098.000000000002
 23
-995.9706401825151
 33
0.0
 14
-1133.000000000002
 24
-919.9706401825151
 34
0.0
 50
90.0
100
AcDbRotatedDimension
  0
DIMENSION
  5
185
330
9C
100
AcDbEntity
  8
1
100
AcDbDimension
  2
*D19
 10
-1168.000000000002
 20
-1006.64403291917
 30
0.0
 11
-1133.194828269012
 21
-1003.39403291917
 31
0.0
 70
    32
  1
<>
 71
     5
 42
-1.0
 53
0.00013888888889
  3
ME10_DIM_12
100
AcDbAlignedDimension
 13
-1098.000000000002
 23
-993.9706401825151
 33
0.0
 14
-1168.000000000002
 24
-993.9706401825151
 34
0.0
100
AcDbRotatedDimension
  0
ENDBLK
  5
9F
330
9C
100
AcDbEntity
  8
0
100
AcDbBlockEnd
  0
BLOCK
  5
A1
330
A0
100
AcDbEntity
  8
0
100
AcDbBlockBegin
  2
_punkt
 70
     0
 10
-886.000000000006
 20
-1176.500000000008
 30
0.0
  3
_punkt
  1

  0
LINE
  5
186
330
A0
100
AcDbEntity
  8
1
  6
Continuous
 62
     2
100
AcDbLine
 10
-886.0000000000059
 20
-1176.500000000008
 30
0.0
 11
-881.0000000000084
 21
-1176.500000000008
 31
0.0
  0
LINE
  5
187
330
A0
100
AcDbEntity
  8
1
  6
Continuous
 62
     2
100
AcDbLine
 10
-886.0000000000059
 20
-1176.500000000008
 30
0.0
 11
-886.0000000000059
 21
-1181.500000000008
 31
0.0
  0
ENDBLK
  5
A2
330
A0
100
AcDbEntity
  8
0
100
AcDbBlockEnd
  0
BLOCK
  5
A4
330
A3
100
AcDbEntity
  8
0
100
AcDbBlockBegin
  2
_rahmen
 70
     0
 10
-886.0000000000059
 20
-1181.500000000008
 30
0.0
  3
_rahmen
  1

  0
LINE
  5
188
330
A3
100
AcDbEntity
  8
1
  6
DOT_CENTER
 62
     2
100
AcDbLine
 10
-1011.558149640193
 20
-1155.375000000008
 30
0.0
 11
-1006.058149640193
 21
-1155.375000000008
 31
0.0
  0
LINE
  5
189
330
A3
100
AcDbEntity
  8
1
  6
PHANTOM
 62
     2
100
AcDbLine
 10
-1002.808149640193
 20
-1152.625000000008
 30
0.0
 11
-1002.808149640193
 21
-1158.125000000008
 31
0.0
  0
LINE
  5
18A
330
A3
100
AcDbEntity
  8
1
  6
PHANTOM
 62
     2
100
AcDbLine
 10
-1000.058149640193
 20
-1155.375000000008
 30
0.0
 11
-1005.558149640193
 21
-1155.375000000008
 31
0.0
  0
LINE
  5
18B
330
A3
100
AcDbEntity
  8
1
  6
Continuous
 62
     6
100
AcDbLine
 10
-1015.544804526756
 20
-1151.000000000008
 30
0.0
 11
-886.0000000000042
 21
-1151.000000000008
 31
0.0
  0
LINE
  5
18C
330
A3
100
AcDbEntity
  8
1
  6
Continuous
 62
     7
100
AcDbLine
 10
-997.344804526756
 20
-1172.250000000008
 30
0.0
 11
-979.1448045267559
 21
-1172.250000000008
 31
0.0
  0
LINE
  5
18D
330
A3
100
AcDbEntity
  8
1
  6
Continuous
 62
     6
100
AcDbLine
 10
-997.344804526756
 20
-1176.500000000008
 30
0.0
 11
-1015.544804526756
 21
-1176.500000000008
 31
0.0
  0
LINE
  5
18E
330
A3
100
AcDbEntity
  8
1
  6
Continuous
 62
     7
100
AcDbLine
 10
-997.344804526756
 20
-1172.250000000008
 30
0.0
 11
-997.344804526756
 21
-1176.500000000008
 31
0.0
  0
LINE
  5
18F
330
A3
100
AcDbEntity
  8
1
  6
Continuous
 62
     7
100
AcDbLine
 10
-979.1448045267559
 20
-1172.250000000008
 30
0.0
 11
-979.1448045267559
 21
-1176.500000000008
 31
0.0
  0
LINE
  5
190
330
A3
100
AcDbEntity
  8
1
  6
Continuous
 62
     7
100
AcDbLine
 10
-1015.544804526756
 20
-1172.250000000008
 30
0.0
 11
-1015.544804526756
 21
-1176.500000000008
 31
0.0
  0
LINE
  5
191
330
A3
100
AcDbEntity
  8
1
  6
Continuous
 62
     7
100
AcDbLine
 10
-1015.544804526756
 20
-1172.250000000008
 30
0.0
 11
-997.344804526756
 21
-1172.250000000008
 31
0.0
  0
LINE
  5
192
330
A3
100
AcDbEntity
  8
1
  6
Continuous
 62
     2
100
AcDbLine
 10
-1006.308149640193
 20
-1152.875000000008
 30
0.0
 11
-1006.308149640193
 21
-1157.875000000008
 31
0.0
  0
LINE
  5
193
330
A3
100
AcDbEntity
  8
1
  6
Continuous
 62
     2
100
AcDbLine
 10
-1006.308149640193
 20
-1157.875000000008
 30
0.0
 11
-1011.308149640193
 21
-1156.625000000008
 31
0.0
  0
LINE
  5
194
330
A3
100
AcDbEntity
  8
1
  6
Continuous
 62
     2
100
AcDbLine
 10
-1011.308149640193
 20
-1156.625000000008
 30
0.0
 11
-1011.308149640193
 21
-1154.125000000008
 31
0.0
  0
LINE
  5
195
330
A3
100
AcDbEntity
  8
1
  6
Continuous
 62
     2
100
AcDbLine
 10
-1011.308149640193
 20
-1154.125000000008
 30
0.0
 11
-1006.308149640193
 21
-1152.875000000008
 31
0.0
  0
LINE
  5
196
330
A3
100
AcDbEntity
  8
1
  6
Continuous
 62
     6
100
AcDbLine
 10
-886.0000000000042
 20
-1159.500000000008
 30
0.0
 11
-886.0000000000047
 21
-1168.000000000008
 31
0.0
  0
LINE
  5
197
330
A3
100
AcDbEntity
  8
1
  6
Continuous
 62
     6
100
AcDbLine
 10
-979.1448045267559
 20
-1176.500000000008
 30
0.0
 11
-979.5000000000059
 21
-1176.500000000008
 31
0.0
  0
LINE
  5
198
330
A3
100
AcDbEntity
  8
1
  6
Continuous
 62
     7
100
AcDbLine
 10
-979.1448045267559
 20
-1159.500000000008
 30
0.0
 11
-979.1448045267559
 21
-1172.250000000008
 31
0.0
  0
LINE
  5
199
330
A3
100
AcDbEntity
  8
1
  6
Continuous
 62
     7
100
AcDbLine
 10
-1015.544804526756
 20
-1159.500000000008
 30
0.0
 11
-1015.544804526756
 21
-1172.250000000008
 31
0.0
  0
LINE
  5
19A
330
A3
100
AcDbEntity
  8
1
  6
Continuous
 62
     6
100
AcDbLine
 10
-979.1448045267559
 20
-1176.500000000008
 30
0.0
 11
-929.5000000000059
 21
-1176.500000000008
 31
0.0
  0
LINE
  5
19B
330
A3
100
AcDbEntity
  8
1
  6
Continuous
 62
     6
100
AcDbLine
 10
-886.000000000006
 20
-1176.500000000008
 30
0.0
 11
-886.0000000000047
 21
-1168.000000000008
 31
0.0
  0
LINE
  5
19C
330
A3
100
AcDbEntity
  8
1
  6
Continuous
 62
     6
100
AcDbLine
 10
-1015.544804526756
 20
-1159.500000000008
 30
0.0
 11
-979.1448045267559
 21
-1159.500000000008
 31
0.0
  0
LINE
  5
19D
330
A3
100
AcDbEntity
  8
1
  6
Continuous
 62
     6
100
AcDbLine
 10
-979.5000000000059
 20
-1176.500000000008
 30
0.0
 11
-997.344804526756
 21
-1176.500000000008
 31
0.0
  0
LINE
  5
19E
330
A3
100
AcDbEntity
  8
1
  6
Continuous
 62
     6
100
AcDbLine
 10
-929.5000000000059
 20
-1176.500000000008
 30
0.0
 11
-886.000000000006
 21
-1176.500000000008
 31
0.0
  0
LINE
  5
19F
102
{ACAD_REACTORS
330
2CD
330
2CE
102
}
330
A3
100
AcDbEntity
  8
0
  6
Continuous
 62
     2
100
AcDbLine
 10
-1008.030178584609
 20
-1164.427485243796
 30
0.0
 11
-1008.030178584609
 21
-1163.821949955289
 31
0.0
  0
LINE
  5
1A0
102
{ACAD_REACTORS
330
2CD
330
2CE
102
}
330
A3
100
AcDbEntity
  8
0
  6
Continuous
 62
     2
100
AcDbLine
 10
-1008.030178584609
 20
-1167.227619850427
 30
0.0
 11
-1008.030178584609
 21
-1166.645768443732
 31
0.0
  0
LINE
  5
1A1
102
{ACAD_REACTORS
330
2CF
330
2D0
102
}
330
A3
100
AcDbEntity
  8
0
  6
Continuous
 62
     2
100
AcDbLine
 10
-985.40069214913
 20
-1166.937955782304
 30
0.0
 11
-985.40069214913
 21
-1169.206499999992
 31
0.0
  0
LINE
  5
1A2
102
{ACAD_REACTORS
330
2CF
330
2D0
102
}
330
A3
100
AcDbEntity
  8
0
  6
Continuous
 62
     2
100
AcDbLine
 10
-986.7817459281175
 20
-1166.152690476181
 30
0.0
 11
-983.3968004094888
 21
-1166.152690476181
 31
0.0
  0
LINE
  5
1A3
102
{ACAD_REACTORS
330
2CF
330
2D0
102
}
330
A3
100
AcDbEntity
  8
0
  6
Continuous
 62
     2
100
AcDbLine
 10
-983.3968004094888
 20
-1166.937955782304
 30
0.0
 11
-983.3968004094888
 21
-1166.152690476181
 31
0.0
  0
LINE
  5
1A4
102
{ACAD_REACTORS
330
2CF
330
2D0
102
}
330
A3
100
AcDbEntity
  8
0
  6
Continuous
 62
     2
100
AcDbLine
 10
-984.2078994469623
 20
-1166.937955782304
 30
0.0
 11
-983.3968004094888
 21
-1166.937955782304
 31
0.0
  0
LINE
  5
1A5
102
{ACAD_REACTORS
330
2CF
330
2D0
102
}
330
A3
100
AcDbEntity
  8
0
  6
Continuous
 62
     2
100
AcDbLine
 10
-984.2078994469623
 20
-1169.206499999992
 30
0.0
 11
-984.2078994469623
 21
-1166.937955782304
 31
0.0
  0
LINE
  5
1A6
102
{ACAD_REACTORS
330
2CF
330
2D0
102
}
330
A3
100
AcDbEntity
  8
0
  6
Continuous
 62
     2
100
AcDbLine
 10
-985.40069214913
 20
-1169.206499999992
 30
0.0
 11
-984.2078994469623
 21
-1169.206499999992
 31
0.0
  0
LINE
  5
1A7
102
{ACAD_REACTORS
330
2C5
330
2C6
102
}
330
A3
100
AcDbEntity
  8
0
  6
Continuous
 62
     2
100
AcDbLine
 10
-986.0972830871945
 20
-1162.793500000006
 30
0.0
 11
-987.5000073049437
 21
-1162.793500000006
 31
0.0
  0
LINE
  5
1A8
102
{ACAD_REACTORS
330
2C5
330
2C6
102
}
330
A3
100
AcDbEntity
  8
0
  6
Continuous
 62
     2
100
AcDbLine
 10
-986.0972830871945
 20
-1162.793500000006
 30
0.0
 11
-985.4961155653026
 21
-1163.473323321562
 31
0.0
  0
LINE
  5
1A9
102
{ACAD_REACTORS
330
2C5
330
2C6
102
}
330
A3
100
AcDbEntity
  8
0
  6
Continuous
 62
     2
100
AcDbLine
 10
-985.4961155653026
 20
-1163.473323321562
 30
0.0
 11
-984.8949480434098
 21
-1162.793500000006
 31
0.0
  0
LINE
  5
1AA
102
{ACAD_REACTORS
330
2C5
330
2C6
102
}
330
A3
100
AcDbEntity
  8
0
  6
Continuous
 62
     2
100
AcDbLine
 10
-984.7947534564291
 20
-1164.266450530042
 30
0.0
 11
-983.4922238256626
 21
-1162.793500000006
 31
0.0
  0
LINE
  5
1AB
102
{ACAD_REACTORS
330
2C5
330
2C6
102
}
330
A3
100
AcDbEntity
  8
0
  6
Continuous
 62
     2
100
AcDbLine
 10
-984.7947534564291
 20
-1164.266450530042
 30
0.0
 11
-983.3968004094888
 21
-1165.847309523817
 31
0.0
  0
LINE
  5
1AC
102
{ACAD_REACTORS
330
2C5
330
2C6
102
}
330
A3
100
AcDbEntity
  8
0
  6
Continuous
 62
     2
100
AcDbLine
 10
-984.7995246272371
 20
-1165.847309523817
 30
0.0
 11
-983.3968004094888
 21
-1165.847309523817
 31
0.0
  0
LINE
  5
1AD
102
{ACAD_REACTORS
330
2C5
330
2C6
102
}
330
A3
100
AcDbEntity
  8
0
  6
Continuous
 62
     2
100
AcDbLine
 10
-985.4961155653026
 20
-1165.059577738524
 30
0.0
 11
-984.7995246272371
 21
-1165.847309523817
 31
0.0
  0
LINE
  5
1AE
102
{ACAD_REACTORS
330
2C3
330
2C4
102
}
330
A3
100
AcDbEntity
  8
0
  6
Continuous
 62
     2
100
AcDbLine
 10
-988.9552144015863
 20
-1162.793500000006
 30
0.0
 11
-987.7147099913334
 21
-1162.793500000006
 31
0.0
  0
LINE
  5
1AF
102
{ACAD_REACTORS
330
2C3
330
2C4
102
}
330
A3
100
AcDbEntity
  8
0
  6
Continuous
 62
     2
100
AcDbLine
 10
-987.7147099913334
 20
-1162.793500000006
 30
0.0
 11
-987.7147099913334
 21
-1165.847309523817
 31
0.0
  0
LINE
  5
1B0
102
{ACAD_REACTORS
330
2C3
330
2C4
102
}
330
A3
100
AcDbEntity
  8
0
  6
Continuous
 62
     2
100
AcDbLine
 10
-988.9552144015863
 20
-1165.847309523817
 30
0.0
 11
-988.9552144015863
 21
-1162.793500000006
 31
0.0
  0
LINE
  5
1B1
102
{ACAD_REACTORS
330
2C1
330
2C2
102
}
330
A3
100
AcDbEntity
  8
0
  6
Continuous
 62
     2
100
AcDbLine
 10
-990.4235244841238
 20
-1167.984976190467
 30
0.0
 11
-990.1233592469316
 21
-1167.217161224481
 31
0.0
  0
LINE
  5
1B2
102
{ACAD_REACTORS
330
2C1
330
2C2
102
}
330
A3
100
AcDbEntity
  8
0
  6
Continuous
 62
     2
100
AcDbLine
 10
-990.9010600887448
 20
-1169.206499999992
 30
0.0
 11
-990.689580035269
 21
-1168.665539455774
 31
0.0
  0
LINE
  5
1B3
102
{ACAD_REACTORS
330
2C1
330
2C2
102
}
330
A3
100
AcDbEntity
  8
0
  6
Continuous
 62
     2
100
AcDbLine
 10
-990.7436114520585
 20
-1166.152690476181
 30
0.0
 11
-992.1415644989977
 21
-1169.206499999992
 31
0.0
  0
LINE
  5
1B4
102
{ACAD_REACTORS
330
2C1
330
2C2
102
}
330
A3
100
AcDbEntity
  8
0
  6
Continuous
 62
     2
100
AcDbLine
 10
-988.1051539948654
 20
-1169.206499999992
 30
0.0
 11
-989.3456584051193
 21
-1169.206499999992
 31
0.0
  0
LINE
  5
1B5
102
{ACAD_REACTORS
330
2C1
330
2C2
102
}
330
A3
100
AcDbEntity
  8
0
  6
Continuous
 62
     2
100
AcDbLine
 10
-990.689580035269
 20
-1168.665539455774
 30
0.0
 11
-989.5571384585951
 21
-1168.665539455774
 31
0.0
  0
LINE
  5
1B6
102
{ACAD_REACTORS
330
2BF
330
2C0
102
}
330
A3
100
AcDbEntity
  8
0
  6
Continuous
 62
     2
100
AcDbLine
 10
-994.2990766381799
 20
-1166.937955782304
 30
0.0
 11
-993.4879776007053
 21
-1166.937955782304
 31
0.0
  0
LINE
  5
1B7
102
{ACAD_REACTORS
330
2BF
330
2C0
102
}
330
A3
100
AcDbEntity
  8
0
  6
Continuous
 62
     2
100
AcDbLine
 10
-991.4840858610662
 20
-1166.152690476181
 30
0.0
 11
-994.2990766381799
 21
-1166.152690476181
 31
0.0
  0
LINE
  5
1B8
102
{ACAD_REACTORS
330
2BF
330
2C0
102
}
330
A3
100
AcDbEntity
  8
0
  6
Continuous
 62
     2
100
AcDbLine
 10
-991.4840858610662
 20
-1166.937955782304
 30
0.0
 11
-991.4840858610662
 21
-1166.152690476181
 31
0.0
  0
LINE
  5
1B9
102
{ACAD_REACTORS
330
2BF
330
2C0
102
}
330
A3
100
AcDbEntity
  8
0
  6
Continuous
 62
     2
100
AcDbLine
 10
-992.2951848985389
 20
-1166.937955782304
 30
0.0
 11
-991.4840858610662
 21
-1166.937955782304
 31
0.0
  0
LINE
  5
1BA
102
{ACAD_REACTORS
330
2BF
330
2C0
102
}
330
A3
100
AcDbEntity
  8
0
  6
Continuous
 62
     2
100
AcDbLine
 10
-992.2951848985389
 20
-1169.206499999992
 30
0.0
 11
-992.2951848985389
 21
-1166.937955782304
 31
0.0
  0
LINE
  5
1BB
102
{ACAD_REACTORS
330
2BD
330
2BE
102
}
330
A3
100
AcDbEntity
  8
0
  6
Continuous
 62
     2
100
AcDbLine
 10
-991.6270700544409
 20
-1165.847309523817
 30
0.0
 11
-991.6270700544409
 21
-1164.538534013613
 31
0.0
  0
LINE
  5
1BC
102
{ACAD_REACTORS
330
2BD
330
2BE
102
}
330
A3
100
AcDbEntity
  8
0
  6
Continuous
 62
     2
100
AcDbLine
 10
-992.8198627566073
 20
-1162.793500000006
 30
0.0
 11
-992.8198627566073
 21
-1165.847309523817
 31
0.0
  0
LINE
  5
1BD
102
{ACAD_REACTORS
330
2BD
330
2BE
102
}
330
A3
100
AcDbEntity
  8
0
  6
Continuous
 62
     2
100
AcDbLine
 10
-991.6270700544409
 20
-1162.793500000006
 30
0.0
 11
-992.8198627566073
 21
-1162.793500000006
 31
0.0
  0
LINE
  5
1BE
102
{ACAD_REACTORS
330
2BD
330
2BE
102
}
330
A3
100
AcDbEntity
  8
0
  6
Continuous
 62
     2
100
AcDbLine
 10
-990.3865656441868
 20
-1162.793500000006
 30
0.0
 11
-990.3865656441868
 21
-1164.102275510211
 31
0.0
  0
LINE
  5
1BF
102
{ACAD_REACTORS
330
2BB
330
2BC
102
}
330
A3
100
AcDbEntity
  8
0
  6
Continuous
 62
     2
100
AcDbLine
 10
-998.068301577027
 20
-1166.152690476181
 30
0.0
 11
-998.068301577027
 21
-1169.206499999992
 31
0.0
  0
LINE
  5
1C0
102
{ACAD_REACTORS
330
2BB
330
2BC
102
}
330
A3
100
AcDbEntity
  8
0
  6
Continuous
 62
     2
100
AcDbLine
 10
-996.8755088748594
 20
-1166.152690476181
 30
0.0
 11
-998.068301577027
 21
-1166.152690476181
 31
0.0
  0
LINE
  5
1C1
102
{ACAD_REACTORS
330
2BB
330
2BC
102
}
330
A3
100
AcDbEntity
  8
0
  6
Continuous
 62
     2
100
AcDbLine
 10
-995.6350044646065
 20
-1169.206499999992
 30
0.0
 11
-994.4422117624401
 21
-1169.206499999992
 31
0.0
  0
LINE
  5
1C2
102
{ACAD_REACTORS
330
2BB
330
2BC
102
}
330
A3
100
AcDbEntity
  8
0
  6
Continuous
 62
     2
100
AcDbLine
 10
-998.068301577027
 20
-1169.206499999992
 30
0.0
 11
-996.8755088748594
 21
-1169.206499999992
 31
0.0
  0
LINE
  5
1C3
102
{ACAD_REACTORS
330
2CB
330
2CC
102
}
330
A3
100
AcDbEntity
  8
0
  6
Continuous
 62
     2
100
AcDbLine
 10
-994.3943491234679
 20
-1163.971397959191
 30
0.0
 11
-994.3943491234679
 21
-1163.491513605449
 31
0.0
  0
LINE
  5
1C4
102
{ACAD_REACTORS
330
2CB
330
2CC
102
}
330
A3
100
AcDbEntity
  8
0
  6
Continuous
 62
     2
100
AcDbLine
 10
-993.0584212970402
 20
-1163.971397959191
 30
0.0
 11
-994.3943491234679
 21
-1163.971397959191
 31
0.0
  0
LINE
  5
1C5
102
{ACAD_REACTORS
330
2CB
330
2CC
102
}
330
A3
100
AcDbEntity
  8
0
  6
Continuous
 62
     2
100
AcDbLine
 10
-993.0584212970402
 20
-1164.669411564633
 30
0.0
 11
-993.0584212970402
 21
-1163.971397959191
 31
0.0
  0
LINE
  5
1C6
102
{ACAD_REACTORS
330
2CB
330
2CC
102
}
330
A3
100
AcDbEntity
  8
0
  6
Continuous
 62
     2
100
AcDbLine
 10
-994.3943491234679
 20
-1164.669411564633
 30
0.0
 11
-993.0584212970402
 21
-1164.669411564633
 31
0.0
  0
LINE
  5
1C7
102
{ACAD_REACTORS
330
2B9
330
2BA
102
}
330
A3
100
AcDbEntity
  8
0
  6
Continuous
 62
     2
100
AcDbLine
 10
-997.8773038137948
 20
-1162.793500000006
 30
0.0
 11
-997.8773038137948
 21
-1165.847309523817
 31
0.0
  0
LINE
  5
1C8
102
{ACAD_REACTORS
330
2B9
330
2BA
102
}
330
A3
100
AcDbEntity
  8
0
  6
Continuous
 62
     2
100
AcDbLine
 10
-997.8773038137948
 20
-1165.847309523817
 30
0.0
 11
-999.0700965159613
 21
-1165.847309523817
 31
0.0
  0
LINE
  5
1C9
102
{ACAD_REACTORS
330
2B9
330
2BA
102
}
330
A3
100
AcDbEntity
  8
0
  6
Continuous
 62
     2
100
AcDbLine
 10
-999.0700965159613
 20
-1165.847309523817
 30
0.0
 11
-999.0700965159613
 21
-1164.713037414974
 31
0.0
  0
LINE
  5
1CA
102
{ACAD_REACTORS
330
2B9
330
2BA
102
}
330
A3
100
AcDbEntity
  8
0
  6
Continuous
 62
     2
100
AcDbLine
 10
-1000.119754093869
 20
-1165.847309523817
 30
0.0
 11
-1001.312546796035
 21
-1165.847309523817
 31
0.0
  0
LINE
  5
1CB
102
{ACAD_REACTORS
330
2B9
330
2BA
102
}
330
A3
100
AcDbEntity
  8
0
  6
Continuous
 62
     2
100
AcDbLine
 10
-1001.312546796035
 20
-1162.793500000006
 30
0.0
 11
-1000.119754093869
 21
-1162.793500000006
 31
0.0
  0
LINE
  5
1CC
102
{ACAD_REACTORS
330
2B9
330
2BA
102
}
330
A3
100
AcDbEntity
  8
0
  6
Continuous
 62
     2
100
AcDbLine
 10
-1000.119754093869
 20
-1162.793500000006
 30
0.0
 11
-1000.119754093869
 21
-1163.862333333341
 31
0.0
  0
LINE
  5
1CD
102
{ACAD_REACTORS
330
2B9
330
2BA
102
}
330
A3
100
AcDbEntity
  8
0
  6
Continuous
 62
     2
100
AcDbLine
 10
-1000.119754093869
 20
-1163.862333333341
 30
0.0
 11
-999.0700965159613
 21
-1163.862333333341
 31
0.0
  0
LINE
  5
1CE
102
{ACAD_REACTORS
330
2C7
330
2C8
102
}
330
A3
100
AcDbEntity
  8
0
  6
Continuous
 62
     2
100
AcDbLine
 10
-1003.268726827589
 20
-1163.456605845446
 30
0.0
 11
-1002.951431766047
 21
-1163.456605845446
 31
0.0
  0
LINE
  5
1CF
102
{ACAD_REACTORS
330
2C7
330
2C8
102
}
330
A3
100
AcDbEntity
  8
0
  6
Continuous
 62
     2
100
AcDbLine
 10
-1003.268726827589
 20
-1164.162333494789
 30
0.0
 11
-1002.951431766047
 21
-1164.162333494789
 31
0.0
  0
LINE
  5
1D0
102
{ACAD_REACTORS
330
2C7
330
2C8
102
}
330
A3
100
AcDbEntity
  8
0
  6
Continuous
 62
     2
100
AcDbLine
 10
-1004.509231237843
 20
-1162.793500000006
 30
0.0
 11
-1004.509231237843
 21
-1165.847309523817
 31
0.0
  0
LINE
  5
1D1
102
{ACAD_REACTORS
330
2C7
330
2C8
102
}
330
A3
100
AcDbEntity
  8
0
  6
Continuous
 62
     2
100
AcDbLine
 10
-1004.509231237843
 20
-1162.793500000006
 30
0.0
 11
-1002.509959239809
 21
-1162.793500000006
 31
0.0
  0
LINE
  5
1D2
102
{ACAD_REACTORS
330
2C7
330
2C8
102
}
330
A3
100
AcDbEntity
  8
0
  6
Continuous
 62
     2
100
AcDbLine
 10
-1003.268726827589
 20
-1164.904231282674
 30
0.0
 11
-1002.509959239809
 21
-1164.904231282674
 31
0.0
  0
LINE
  5
1D3
102
{ACAD_REACTORS
330
2CD
330
2CE
102
}
330
A3
100
AcDbEntity
  8
0
  6
Continuous
 62
     2
100
AcDbLine
 10
-1010.60572727114
 20
-1163.821772478641
 30
0.0
 11
-1010.60572727114
 21
-1168.178227521358
 31
0.0
  0
LINE
  5
1D4
102
{ACAD_REACTORS
330
2CD
330
2CE
102
}
330
A3
100
AcDbEntity
  8
0
  6
Continuous
 62
     2
100
AcDbLine
 10
-1010.290010348064
 20
-1163.506055555565
 30
0.0
 11
-1008.814177087055
 21
-1163.506055555565
 31
0.0
  0
LINE
  5
1D5
102
{ACAD_REACTORS
330
2CD
330
2CE
102
}
330
A3
100
AcDbEntity
  8
0
  6
Continuous
 62
     2
100
AcDbLine
 10
-1008.498460163978
 20
-1164.425797097702
 30
0.0
 11
-1008.498460163978
 21
-1163.821772478641
 31
0.0
  0
LINE
  5
1D6
102
{ACAD_REACTORS
330
2CD
330
2CE
102
}
330
A3
100
AcDbEntity
  8
0
  6
Continuous
 62
     2
100
AcDbLine
 10
-1008.498460163978
 20
-1168.178227521358
 30
0.0
 11
-1008.498460163978
 21
-1166.647456589827
 31
0.0
  0
LINE
  5
1D7
102
{ACAD_REACTORS
330
2CD
330
2CE
102
}
330
A3
100
AcDbEntity
  8
0
  6
Continuous
 62
     2
100
AcDbLine
 10
-1005.410592934094
 20
-1169.206499999992
 30
0.0
 11
-1010.883905024811
 21
-1169.206499999992
 31
0.0
  0
LINE
  5
1D8
102
{ACAD_REACTORS
330
2CD
330
2CE
102
}
330
A3
100
AcDbEntity
  8
0
  6
Continuous
 62
     2
100
AcDbLine
 10
-1004.98634831871
 20
-1163.217744615408
 30
0.0
 11
-1004.98634831871
 21
-1168.782255384609
 31
0.0
  0
LINE
  5
1D9
102
{ACAD_REACTORS
330
2CD
330
2CE
102
}
330
A3
100
AcDbEntity
  8
0
  6
Continuous
 62
     2
100
AcDbLine
 10
-1010.883905024811
 20
-1162.793500000024
 30
0.0
 11
-1005.410592934094
 21
-1162.793500000024
 31
0.0
  0
LINE
  5
1DA
102
{ACAD_REACTORS
330
2CD
330
2CE
102
}
330
A3
100
AcDbEntity
  8
0
  6
Continuous
 62
     2
100
AcDbLine
 10
-1011.308149640193
 20
-1163.217744615408
 30
0.0
 11
-1011.308149640193
 21
-1168.782255384609
 31
0.0
  0
LINE
  5
1DB
102
{ACAD_REACTORS
330
2CD
330
2CE
102
}
330
A3
100
AcDbEntity
  8
0
  6
Continuous
 62
     2
100
AcDbLine
 10
-1008.814177087055
 20
-1168.493944444435
 30
0.0
 11
-1010.290010348064
 21
-1168.493944444435
 31
0.0
  0
LINE
  5
1DC
102
{ACAD_REACTORS
330
2C7
330
2C8
102
}
330
A3
100
AcDbEntity
  8
0
  6
Continuous
 62
     2
100
AcDbLine
 10
-1003.268726827589
 20
-1165.847309523817
 30
0.0
 11
-1003.268726827589
 21
-1164.904231282674
 31
0.0
  0
LINE
  5
1DD
102
{ACAD_REACTORS
330
2C7
330
2C8
102
}
330
A3
100
AcDbEntity
  8
0
  6
Continuous
 62
     2
100
AcDbLine
 10
-1004.509231237843
 20
-1165.847309523817
 30
0.0
 11
-1003.268726827589
 21
-1165.847309523817
 31
0.0
  0
LINE
  5
1DE
102
{ACAD_REACTORS
330
2C7
330
2C8
102
}
330
A3
100
AcDbEntity
  8
0
  6
Continuous
 62
     2
100
AcDbLine
 10
-1003.268726827589
 20
-1164.162333494789
 30
0.0
 11
-1003.268726827589
 21
-1163.456605845446
 31
0.0
  0
LINE
  5
1DF
102
{ACAD_REACTORS
330
2B9
330
2BA
102
}
330
A3
100
AcDbEntity
  8
0
  6
Continuous
 62
     2
100
AcDbLine
 10
-1001.312546796035
 20
-1162.793500000006
 30
0.0
 11
-1001.312546796035
 21
-1165.847309523817
 31
0.0
  0
LINE
  5
1E0
102
{ACAD_REACTORS
330
2B9
330
2BA
102
}
330
A3
100
AcDbEntity
  8
0
  6
Continuous
 62
     2
100
AcDbLine
 10
-1000.119754093869
 20
-1164.713037414974
 30
0.0
 11
-1000.119754093869
 21
-1165.847309523817
 31
0.0
  0
LINE
  5
1E1
102
{ACAD_REACTORS
330
2B9
330
2BA
102
}
330
A3
100
AcDbEntity
  8
0
  6
Continuous
 62
     2
100
AcDbLine
 10
-999.0700965159613
 20
-1164.713037414974
 30
0.0
 11
-1000.119754093869
 21
-1164.713037414974
 31
0.0
  0
LINE
  5
1E2
102
{ACAD_REACTORS
330
2B9
330
2BA
102
}
330
A3
100
AcDbEntity
  8
0
  6
Continuous
 62
     2
100
AcDbLine
 10
-999.0700965159613
 20
-1162.793500000006
 30
0.0
 11
-997.8773038137948
 21
-1162.793500000006
 31
0.0
  0
LINE
  5
1E3
102
{ACAD_REACTORS
330
2B9
330
2BA
102
}
330
A3
100
AcDbEntity
  8
0
  6
Continuous
 62
     2
100
AcDbLine
 10
-999.0700965159613
 20
-1163.862333333341
 30
0.0
 11
-999.0700965159613
 21
-1162.793500000006
 31
0.0
  0
LINE
  5
1E4
102
{ACAD_REACTORS
330
2CB
330
2CC
102
}
330
A3
100
AcDbEntity
  8
0
  6
Continuous
 62
     2
100
AcDbLine
 10
-993.0584212970402
 20
-1163.491513605449
 30
0.0
 11
-993.0584212970402
 21
-1162.793500000006
 31
0.0
  0
LINE
  5
1E5
102
{ACAD_REACTORS
330
2CB
330
2CC
102
}
330
A3
100
AcDbEntity
  8
0
  6
Continuous
 62
     2
100
AcDbLine
 10
-996.2087410208212
 20
-1162.793500000006
 30
0.0
 11
-993.0584212970402
 21
-1162.793500000006
 31
0.0
  0
LINE
  5
1E6
102
{ACAD_REACTORS
330
2CB
330
2CC
102
}
330
A3
100
AcDbEntity
  8
0
  6
Continuous
 62
     2
100
AcDbLine
 10
-996.2087410208212
 20
-1165.847309523817
 30
0.0
 11
-993.0584212970402
 21
-1165.847309523817
 31
0.0
  0
LINE
  5
1E7
102
{ACAD_REACTORS
330
2CB
330
2CC
102
}
330
A3
100
AcDbEntity
  8
0
  6
Continuous
 62
     2
100
AcDbLine
 10
-993.0584212970402
 20
-1165.847309523817
 30
0.0
 11
-993.0584212970402
 21
-1165.149295918375
 31
0.0
  0
LINE
  5
1E8
102
{ACAD_REACTORS
330
2CB
330
2CC
102
}
330
A3
100
AcDbEntity
  8
0
  6
Continuous
 62
     2
100
AcDbLine
 10
-993.0584212970402
 20
-1165.149295918375
 30
0.0
 11
-994.3943491234679
 21
-1165.149295918375
 31
0.0
  0
LINE
  5
1E9
102
{ACAD_REACTORS
330
2CB
330
2CC
102
}
330
A3
100
AcDbEntity
  8
0
  6
Continuous
 62
     2
100
AcDbLine
 10
-994.3943491234679
 20
-1165.149295918375
 30
0.0
 11
-994.3943491234679
 21
-1164.669411564633
 31
0.0
  0
LINE
  5
1EA
102
{ACAD_REACTORS
330
2CB
330
2CC
102
}
330
A3
100
AcDbEntity
  8
0
  6
Continuous
 62
     2
100
AcDbLine
 10
-994.3943491234679
 20
-1163.491513605449
 30
0.0
 11
-993.0584212970402
 21
-1163.491513605449
 31
0.0
  0
LINE
  5
1EB
102
{ACAD_REACTORS
330
2BB
330
2BC
102
}
330
A3
100
AcDbEntity
  8
0
  6
Continuous
 62
     2
100
AcDbLine
 10
-996.8755088748594
 20
-1169.206499999992
 30
0.0
 11
-996.8755088748594
 21
-1167.897724489787
 31
0.0
  0
LINE
  5
1EC
102
{ACAD_REACTORS
330
2BB
330
2BC
102
}
330
A3
100
AcDbEntity
  8
0
  6
Continuous
 62
     2
100
AcDbLine
 10
-996.8755088748594
 20
-1167.897724489787
 30
0.0
 11
-995.6350044646065
 21
-1169.206499999992
 31
0.0
  0
LINE
  5
1ED
102
{ACAD_REACTORS
330
2BB
330
2BC
102
}
330
A3
100
AcDbEntity
  8
0
  6
Continuous
 62
     2
100
AcDbLine
 10
-994.4422117624401
 20
-1169.206499999992
 30
0.0
 11
-994.4422117624401
 21
-1166.152690476181
 31
0.0
  0
LINE
  5
1EE
102
{ACAD_REACTORS
330
2BB
330
2BC
102
}
330
A3
100
AcDbEntity
  8
0
  6
Continuous
 62
     2
100
AcDbLine
 10
-994.4422117624401
 20
-1166.152690476181
 30
0.0
 11
-995.6350044646065
 21
-1166.152690476181
 31
0.0
  0
LINE
  5
1EF
102
{ACAD_REACTORS
330
2BB
330
2BC
102
}
330
A3
100
AcDbEntity
  8
0
  6
Continuous
 62
     2
100
AcDbLine
 10
-995.6350044646065
 20
-1166.152690476181
 30
0.0
 11
-995.6350044646065
 21
-1167.461465986386
 31
0.0
  0
LINE
  5
1F0
102
{ACAD_REACTORS
330
2BB
330
2BC
102
}
330
A3
100
AcDbEntity
  8
0
  6
Continuous
 62
     2
100
AcDbLine
 10
-995.6350044646065
 20
-1167.461465986386
 30
0.0
 11
-996.8755088748594
 21
-1166.152690476181
 31
0.0
  0
LINE
  5
1F1
102
{ACAD_REACTORS
330
2BD
330
2BE
102
}
330
A3
100
AcDbEntity
  8
0
  6
Continuous
 62
     2
100
AcDbLine
 10
-991.6270700544409
 20
-1164.538534013613
 30
0.0
 11
-990.3865656441868
 21
-1165.847309523817
 31
0.0
  0
LINE
  5
1F2
102
{ACAD_REACTORS
330
2BD
330
2BE
102
}
330
A3
100
AcDbEntity
  8
0
  6
Continuous
 62
     2
100
AcDbLine
 10
-990.3865656441868
 20
-1165.847309523817
 30
0.0
 11
-989.1937729420201
 21
-1165.847309523817
 31
0.0
  0
LINE
  5
1F3
102
{ACAD_REACTORS
330
2BD
330
2BE
102
}
330
A3
100
AcDbEntity
  8
0
  6
Continuous
 62
     2
100
AcDbLine
 10
-989.1937729420201
 20
-1165.847309523817
 30
0.0
 11
-989.1937729420201
 21
-1162.793500000006
 31
0.0
  0
LINE
  5
1F4
102
{ACAD_REACTORS
330
2BD
330
2BE
102
}
330
A3
100
AcDbEntity
  8
0
  6
Continuous
 62
     2
100
AcDbLine
 10
-989.1937729420201
 20
-1162.793500000006
 30
0.0
 11
-990.3865656441868
 21
-1162.793500000006
 31
0.0
  0
LINE
  5
1F5
102
{ACAD_REACTORS
330
2BD
330
2BE
102
}
330
A3
100
AcDbEntity
  8
0
  6
Continuous
 62
     2
100
AcDbLine
 10
-990.3865656441868
 20
-1164.102275510211
 30
0.0
 11
-991.6270700544409
 21
-1162.793500000006
 31
0.0
  0
LINE
  5
1F6
102
{ACAD_REACTORS
330
2BD
330
2BE
102
}
330
A3
100
AcDbEntity
  8
0
  6
Continuous
 62
     2
100
AcDbLine
 10
-992.8198627566073
 20
-1165.847309523817
 30
0.0
 11
-991.6270700544409
 21
-1165.847309523817
 31
0.0
  0
LINE
  5
1F7
102
{ACAD_REACTORS
330
2BF
330
2C0
102
}
330
A3
100
AcDbEntity
  8
0
  6
Continuous
 62
     2
100
AcDbLine
 10
-994.2990766381799
 20
-1166.152690476181
 30
0.0
 11
-994.2990766381799
 21
-1166.937955782304
 31
0.0
  0
LINE
  5
1F8
102
{ACAD_REACTORS
330
2BF
330
2C0
102
}
330
A3
100
AcDbEntity
  8
0
  6
Continuous
 62
     2
100
AcDbLine
 10
-993.4879776007053
 20
-1166.937955782304
 30
0.0
 11
-993.4879776007053
 21
-1169.206499999992
 31
0.0
  0
LINE
  5
1F9
102
{ACAD_REACTORS
330
2BF
330
2C0
102
}
330
A3
100
AcDbEntity
  8
0
  6
Continuous
 62
     2
100
AcDbLine
 10
-993.4879776007053
 20
-1169.206499999992
 30
0.0
 11
-992.2951848985389
 21
-1169.206499999992
 31
0.0
  0
LINE
  5
1FA
102
{ACAD_REACTORS
330
2C1
330
2C2
102
}
330
A3
100
AcDbEntity
  8
0
  6
Continuous
 62
     2
100
AcDbLine
 10
-989.3456584051193
 20
-1169.206499999992
 30
0.0
 11
-989.5571384585951
 21
-1168.665539455774
 31
0.0
  0
LINE
  5
1FB
102
{ACAD_REACTORS
330
2C1
330
2C2
102
}
330
A3
100
AcDbEntity
  8
0
  6
Continuous
 62
     2
100
AcDbLine
 10
-989.5031070418056
 20
-1166.152690476181
 30
0.0
 11
-988.1051539948654
 21
-1169.206499999992
 31
0.0
  0
LINE
  5
1FC
102
{ACAD_REACTORS
330
2C1
330
2C2
102
}
330
A3
100
AcDbEntity
  8
0
  6
Continuous
 62
     2
100
AcDbLine
 10
-990.7436114520585
 20
-1166.152690476181
 30
0.0
 11
-989.5031070418056
 21
-1166.152690476181
 31
0.0
  0
LINE
  5
1FD
102
{ACAD_REACTORS
330
2C1
330
2C2
102
}
330
A3
100
AcDbEntity
  8
0
  6
Continuous
 62
     2
100
AcDbLine
 10
-992.1415644989977
 20
-1169.206499999992
 30
0.0
 11
-990.9010600887448
 21
-1169.206499999992
 31
0.0
  0
LINE
  5
1FE
102
{ACAD_REACTORS
330
2C1
330
2C2
102
}
330
A3
100
AcDbEntity
  8
0
  6
Continuous
 62
     2
100
AcDbLine
 10
-990.4235244841238
 20
-1167.984976190467
 30
0.0
 11
-989.8231940097414
 21
-1167.984976190467
 31
0.0
  0
LINE
  5
1FF
102
{ACAD_REACTORS
330
2C1
330
2C2
102
}
330
A3
100
AcDbEntity
  8
0
  6
Continuous
 62
     2
100
AcDbLine
 10
-989.8231940097414
 20
-1167.984976190467
 30
0.0
 11
-990.1233592469316
 21
-1167.217161224481
 31
0.0
  0
LINE
  5
200
102
{ACAD_REACTORS
330
2C3
330
2C4
102
}
330
A3
100
AcDbEntity
  8
0
  6
Continuous
 62
     2
100
AcDbLine
 10
-987.7147099913334
 20
-1165.847309523817
 30
0.0
 11
-988.9552144015863
 21
-1165.847309523817
 31
0.0
  0
LINE
  5
201
102
{ACAD_REACTORS
330
2C5
330
2C6
102
}
330
A3
100
AcDbEntity
  8
0
  6
Continuous
 62
     2
100
AcDbLine
 10
-986.1927065033684
 20
-1165.847309523817
 30
0.0
 11
-987.5954307211165
 21
-1165.847309523817
 31
0.0
  0
LINE
  5
202
102
{ACAD_REACTORS
330
2C5
330
2C6
102
}
330
A3
100
AcDbEntity
  8
0
  6
Continuous
 62
     2
100
AcDbLine
 10
-986.1927065033684
 20
-1165.847309523817
 30
0.0
 11
-985.4961155653026
 21
-1165.059577738524
 31
0.0
  0
LINE
  5
203
102
{ACAD_REACTORS
330
2C5
330
2C6
102
}
330
A3
100
AcDbEntity
  8
0
  6
Continuous
 62
     2
100
AcDbLine
 10
-984.8949480434098
 20
-1162.793500000006
 30
0.0
 11
-983.4922238256626
 21
-1162.793500000006
 31
0.0
  0
LINE
  5
204
102
{ACAD_REACTORS
330
2C5
330
2C6
102
}
330
A3
100
AcDbEntity
  8
0
  6
Continuous
 62
     2
100
AcDbLine
 10
-987.5000073049437
 20
-1162.793500000006
 30
0.0
 11
-986.1974776741762
 21
-1164.266450530042
 31
0.0
  0
LINE
  5
205
102
{ACAD_REACTORS
330
2C5
330
2C6
102
}
330
A3
100
AcDbEntity
  8
0
  6
Continuous
 62
     2
100
AcDbLine
 10
-987.5954307211165
 20
-1165.847309523817
 30
0.0
 11
-986.1974776741762
 21
-1164.266450530042
 31
0.0
  0
LINE
  5
206
102
{ACAD_REACTORS
330
2CF
330
2D0
102
}
330
A3
100
AcDbEntity
  8
0
  6
Continuous
 62
     2
100
AcDbLine
 10
-985.7346741057366
 20
-1168.159479591828
 30
0.0
 11
-985.7346741057366
 21
-1169.031996598631
 31
0.0
  0
LINE
  5
207
102
{ACAD_REACTORS
330
2CF
330
2D0
102
}
330
A3
100
AcDbEntity
  8
0
  6
Continuous
 62
     2
100
AcDbLine
 10
-986.504331448698
 20
-1166.937955782304
 30
0.0
 11
-985.40069214913
 21
-1166.937955782304
 31
0.0
  0
LINE
  5
208
102
{ACAD_REACTORS
330
2D1
330
2D2
102
}
330
A3
100
AcDbEntity
  8
0
  6
Continuous
 62
     2
100
AcDbLine
 10
-1001.837375584988
 20
-1168.159479591828
 30
0.0
 11
-1001.837375584988
 21
-1169.031996598631
 31
0.0
  0
LINE
  5
209
102
{ACAD_REACTORS
330
2D1
330
2D2
102
}
330
A3
100
AcDbEntity
  8
0
  6
Continuous
 62
     2
100
AcDbLine
 10
-1001.837375584988
 20
-1167.199710884345
 30
0.0
 11
-1001.837375584988
 21
-1166.327193877542
 31
0.0
  0
LINE
  5
20A
330
A3
100
AcDbEntity
  8
1
  6
Continuous
 62
     7
100
AcDbLine
 10
-886.0000000000047
 20
-1168.000000000008
 30
0.0
 11
-979.1448045267559
 21
-1168.000000000008
 31
0.0
  0
LINE
  5
20B
330
A3
100
AcDbEntity
  8
1
  6
Continuous
 62
     7
100
AcDbLine
 10
-894.9184082816834
 20
-1151.000000000008
 30
0.0
 11
-894.9184082816834
 21
-1159.500000000008
 31
0.0
  0
LINE
  5
20C
330
A3
100
AcDbEntity
  8
1
  6
Continuous
 62
     7
100
AcDbLine
 10
-921.418408281683
 20
-1151.000000000008
 30
0.0
 11
-921.418408281683
 21
-1159.500000000008
 31
0.0
  0
LINE
  5
20D
330
A3
100
AcDbEntity
  8
1
  6
Continuous
 62
     7
100
AcDbLine
 10
-979.1448045267559
 20
-1159.500000000008
 30
0.0
 11
-979.1448045267559
 21
-1151.000000000008
 31
0.0
  0
LINE
  5
20E
330
A3
100
AcDbEntity
  8
1
  6
Continuous
 62
     7
100
AcDbLine
 10
-1015.544804526756
 20
-1159.500000000008
 30
0.0
 11
-1015.544804526756
 21
-1151.000000000008
 31
0.0
  0
LINE
  5
20F
330
A3
100
AcDbEntity
  8
1
  6
Continuous
 62
     6
100
AcDbLine
 10
-979.1448045267559
 20
-1159.500000000008
 30
0.0
 11
-886.0000000000042
 21
-1159.500000000008
 31
0.0
  0
LINE
  5
210
330
A3
100
AcDbEntity
  8
1
  6
Continuous
 62
     7
100
AcDbLine
 10
-951.244804526756
 20
-1168.000000000008
 30
0.0
 11
-951.244804526756
 21
-1159.500000000008
 31
0.0
  0
LINE
  5
211
330
A3
100
AcDbEntity
  8
1
  6
Continuous
 62
     6
100
AcDbLine
 10
-886.0000000000042
 20
-1159.500000000008
 30
0.0
 11
-886.0000000000042
 21
-1151.000000000008
 31
0.0
  0
LINE
  5
212
330
A3
100
AcDbEntity
  8
1
  6
Continuous
 62
     2
100
AcDbLine
 10
-1022.666666666673
 20
-1176.500000000011
 30
0.0
 11
-1022.666666666673
 21
-1176.500000000008
 31
0.0
  0
LINE
  5
213
330
A3
100
AcDbEntity
  8
1
  6
Continuous
 62
     6
100
AcDbLine
 10
-1159.333333333339
 20
-1176.500000000008
 30
0.0
 11
-1015.544804526756
 21
-1176.500000000011
 31
0.0
  0
LINE
  5
214
330
A3
100
AcDbEntity
  8
1
  6
Continuous
 62
     6
100
AcDbLine
 10
-886.000000000006
 20
-1176.500000000008
 30
0.0
 11
-886.0000000000064
 21
-1168.000000000008
 31
0.0
  0
LINE
  5
215
330
A3
100
AcDbEntity
  8
1
  6
Continuous
 62
     6
100
AcDbLine
 10
-1281.000000000006
 20
-1176.500000000008
 30
0.0
 11
-1281.000000000007
 21
-889.5000000000073
 31
0.0
  0
LINE
  5
216
330
A3
100
AcDbEntity
  8
1
  6
Continuous
 62
     2
100
AcDbLine
 10
-1301.000000000007
 20
-1033.000000000008
 30
0.0
 11
-1301.000000000007
 21
-1181.500000000008
 31
0.0
  0
LINE
  5
217
330
A3
100
AcDbEntity
  8
1
  6
Continuous
 62
     2
100
AcDbLine
 10
-1301.000000000007
 20
-1033.000000000008
 30
0.0
 11
-1291.000000000007
 21
-1033.000000000008
 31
0.0
  0
LINE
  5
218
330
A3
100
AcDbEntity
  8
1
  6
Continuous
 62
     2
100
AcDbLine
 10
-1301.000000000007
 20
-884.5000000000075
 30
0.0
 11
-1301.000000000007
 21
-1033.000000000008
 31
0.0
  0
LINE
  5
219
330
A3
100
AcDbEntity
  8
1
  6
Continuous
 62
     2
100
AcDbLine
 10
-1071.000000000009
 20
-884.5000000000075
 30
0.0
 11
-1091.000000000006
 21
-884.5000000000075
 31
0.0
  0
LINE
  5
21A
330
A3
100
AcDbEntity
  8
1
  6
Continuous
 62
     2
100
AcDbLine
 10
-1071.000000000009
 20
-884.5000000000075
 30
0.0
 11
-1071.000000000009
 21
-888.5000000000073
 31
0.0
  0
LINE
  5
21B
330
A3
100
AcDbEntity
  8
1
  6
Continuous
 62
     2
100
AcDbLine
 10
-1281.000000000007
 20
-884.5000000000075
 30
0.0
 11
-1301.000000000007
 21
-884.5000000000075
 31
0.0
  0
LINE
  5
21C
330
A3
100
AcDbEntity
  8
1
  6
Continuous
 62
     2
100
AcDbLine
 10
-1281.000000000007
 20
-884.5000000000075
 30
0.0
 11
-1281.000000000007
 21
-888.5000000000073
 31
0.0
  0
LINE
  5
21D
330
A3
100
AcDbEntity
  8
1
  6
Continuous
 62
     2
100
AcDbLine
 10
-1227.666666666673
 20
-884.5000000000075
 30
0.0
 11
-1281.000000000007
 21
-884.5000000000075
 31
0.0
  0
LINE
  5
21E
330
A3
100
AcDbEntity
  8
1
  6
Continuous
 62
     6
100
AcDbLine
 10
-1227.666666666673
 20
-889.5000000000073
 30
0.0
 11
-1159.333333333339
 21
-889.5000000000075
 31
0.0
  0
LINE
  5
21F
330
A3
100
AcDbEntity
  8
1
  6
Continuous
 62
     2
100
AcDbLine
 10
-1227.666666666673
 20
-889.5000000000073
 30
0.0
 11
-1227.666666666673
 21
-884.5000000000075
 31
0.0
  0
LINE
  5
220
330
A3
100
AcDbEntity
  8
1
  6
Continuous
 62
     2
100
AcDbLine
 10
-1159.333333333339
 20
-884.5000000000075
 30
0.0
 11
-1227.666666666673
 21
-884.5000000000075
 31
0.0
  0
LINE
  5
221
330
A3
100
AcDbEntity
  8
1
  6
Continuous
 62
     6
100
AcDbLine
 10
-1159.333333333339
 20
-889.5000000000075
 30
0.0
 11
-1091.000000000006
 21
-889.5000000000075
 31
0.0
  0
LINE
  5
222
330
A3
100
AcDbEntity
  8
1
  6
Continuous
 62
     2
100
AcDbLine
 10
-1159.333333333339
 20
-889.5000000000075
 30
0.0
 11
-1159.333333333339
 21
-884.5000000000075
 31
0.0
  0
LINE
  5
223
330
A3
100
AcDbEntity
  8
1
  6
Continuous
 62
     2
100
AcDbLine
 10
-1091.000000000006
 20
-884.5000000000075
 30
0.0
 11
-1159.333333333339
 21
-884.5000000000075
 31
0.0
  0
LINE
  5
224
330
A3
100
AcDbEntity
  8
1
  6
Continuous
 62
     6
100
AcDbLine
 10
-1091.000000000006
 20
-889.5000000000075
 30
0.0
 11
-1022.666666666673
 21
-889.5000000000075
 31
0.0
  0
LINE
  5
225
330
A3
100
AcDbEntity
  8
1
  6
Continuous
 62
     2
100
AcDbLine
 10
-1091.000000000006
 20
-889.5000000000075
 30
0.0
 11
-1091.000000000006
 21
-884.5000000000075
 31
0.0
  0
LINE
  5
226
330
A3
100
AcDbEntity
  8
1
  6
Continuous
 62
     2
100
AcDbLine
 10
-1022.666666666673
 20
-884.5000000000075
 30
0.0
 11
-1071.000000000009
 21
-884.5000000000075
 31
0.0
  0
LINE
  5
227
330
A3
100
AcDbEntity
  8
1
  6
Continuous
 62
     6
100
AcDbLine
 10
-1022.666666666673
 20
-889.5000000000075
 30
0.0
 11
-954.3333333333394
 21
-889.5000000000075
 31
0.0
  0
LINE
  5
228
330
A3
100
AcDbEntity
  8
1
  6
Continuous
 62
     2
100
AcDbLine
 10
-1022.666666666673
 20
-889.5000000000075
 30
0.0
 11
-1022.666666666673
 21
-884.5000000000075
 31
0.0
  0
LINE
  5
229
330
A3
100
AcDbEntity
  8
1
  6
Continuous
 62
     2
100
AcDbLine
 10
-954.3333333333394
 20
-884.5000000000075
 30
0.0
 11
-1022.666666666673
 21
-884.5000000000075
 31
0.0
  0
LINE
  5
22A
330
A3
100
AcDbEntity
  8
1
  6
Continuous
 62
     6
100
AcDbLine
 10
-954.3333333333394
 20
-889.5000000000075
 30
0.0
 11
-886.0000000000084
 21
-889.5000000000075
 31
0.0
  0
LINE
  5
22B
330
A3
100
AcDbEntity
  8
1
  6
Continuous
 62
     2
100
AcDbLine
 10
-954.3333333333394
 20
-889.5000000000075
 30
0.0
 11
-954.3333333333394
 21
-884.5000000000075
 31
0.0
  0
LINE
  5
22C
330
A3
100
AcDbEntity
  8
1
  6
Continuous
 62
     2
100
AcDbLine
 10
-886.0000000000084
 20
-884.5000000000075
 30
0.0
 11
-954.3333333333394
 21
-884.5000000000075
 31
0.0
  0
LINE
  5
22D
330
A3
100
AcDbEntity
  8
1
  6
Continuous
 62
     6
100
AcDbLine
 10
-1281.000000000007
 20
-889.5000000000073
 30
0.0
 11
-1227.666666666673
 21
-889.5000000000073
 31
0.0
  0
LINE
  5
22E
330
A3
100
AcDbEntity
  8
1
  6
Continuous
 62
     6
100
AcDbLine
 10
-886.0000000000059
 20
-1061.700000000007
 30
0.0
 11
-886.000000000006
 21
-1119.100000000007
 31
0.0
  0
LINE
  5
22F
330
A3
100
AcDbEntity
  8
1
  6
Continuous
 62
     2
100
AcDbLine
 10
-886.0000000000059
 20
-1061.700000000007
 30
0.0
 11
-881.0000000000084
 21
-1061.700000000007
 31
0.0
  0
LINE
  5
230
330
A3
100
AcDbEntity
  8
1
  6
Continuous
 62
     2
100
AcDbLine
 10
-881.0000000000084
 20
-1004.300000000008
 30
0.0
 11
-881.0000000000084
 21
-1061.700000000007
 31
0.0
  0
LINE
  5
231
330
A3
100
AcDbEntity
  8
1
  6
Continuous
 62
     6
100
AcDbLine
 10
-886.0000000000059
 20
-1004.300000000008
 30
0.0
 11
-886.0000000000059
 21
-1061.700000000007
 31
0.0
  0
LINE
  5
232
330
A3
100
AcDbEntity
  8
1
  6
Continuous
 62
     2
100
AcDbLine
 10
-886.0000000000059
 20
-1004.300000000008
 30
0.0
 11
-881.0000000000084
 21
-1004.300000000008
 31
0.0
  0
LINE
  5
233
330
A3
100
AcDbEntity
  8
1
  6
Continuous
 62
     2
100
AcDbLine
 10
-881.0000000000084
 20
-946.9000000000076
 30
0.0
 11
-881.0000000000084
 21
-1004.300000000008
 31
0.0
  0
LINE
  5
234
330
A3
100
AcDbEntity
  8
1
  6
Continuous
 62
     6
100
AcDbLine
 10
-886.000000000008
 20
-946.9000000000076
 30
0.0
 11
-886.0000000000059
 21
-1004.300000000008
 31
0.0
  0
LINE
  5
235
330
A3
100
AcDbEntity
  8
1
  6
Continuous
 62
     2
100
AcDbLine
 10
-886.000000000008
 20
-946.9000000000076
 30
0.0
 11
-881.0000000000084
 21
-946.9000000000076
 31
0.0
  0
LINE
  5
236
330
A3
100
AcDbEntity
  8
1
  6
Continuous
 62
     2
100
AcDbLine
 10
-881.0000000000084
 20
-889.5000000000075
 30
0.0
 11
-881.0000000000084
 21
-946.9000000000076
 31
0.0
  0
LINE
  5
237
330
A3
100
AcDbEntity
  8
1
  6
Continuous
 62
     2
100
AcDbLine
 10
-886.0000000000084
 20
-889.5000000000075
 30
0.0
 11
-881.0000000000084
 21
-889.5000000000075
 31
0.0
  0
LINE
  5
238
330
A3
100
AcDbEntity
  8
1
  6
Continuous
 62
     2
100
AcDbLine
 10
-886.0000000000084
 20
-889.5000000000075
 30
0.0
 11
-886.0000000000084
 21
-884.5000000000075
 31
0.0
  0
LINE
  5
239
330
A3
100
AcDbEntity
  8
1
  6
Continuous
 62
     2
100
AcDbLine
 10
-881.0000000000084
 20
-884.5000000000075
 30
0.0
 11
-881.0000000000084
 21
-889.5000000000075
 31
0.0
  0
LINE
  5
23A
330
A3
100
AcDbEntity
  8
1
  6
Continuous
 62
     6
100
AcDbLine
 10
-886.0000000000084
 20
-889.5000000000075
 30
0.0
 11
-886.000000000008
 21
-946.9000000000076
 31
0.0
  0
LINE
  5
23B
330
A3
100
AcDbEntity
  8
1
  6
Continuous
 62
     2
100
AcDbLine
 10
-881.0000000000084
 20
-884.5000000000075
 30
0.0
 11
-886.0000000000084
 21
-884.5000000000075
 31
0.0
  0
LINE
  5
23C
330
A3
100
AcDbEntity
  8
1
  6
Continuous
 62
     2
100
AcDbLine
 10
-881.0000000000084
 20
-1176.500000000008
 30
0.0
 11
-881.0000000000084
 21
-1119.100000000007
 31
0.0
  0
LINE
  5
23D
330
A3
100
AcDbEntity
  8
1
  6
Continuous
 62
     2
100
AcDbLine
 10
-881.0000000000084
 20
-1176.500000000008
 30
0.0
 11
-881.0000000000084
 21
-1181.500000000008
 31
0.0
  0
LINE
  5
23E
330
A3
100
AcDbEntity
  8
1
  6
Continuous
 62
     2
100
AcDbLine
 10
-881.0000000000084
 20
-1181.500000000008
 30
0.0
 11
-886.0000000000059
 21
-1181.500000000008
 31
0.0
  0
LINE
  5
23F
330
A3
100
AcDbEntity
  8
1
  6
Continuous
 62
     2
100
AcDbLine
 10
-1022.666666666673
 20
-1181.500000000008
 30
0.0
 11
-954.3333333333394
 21
-1181.500000000008
 31
0.0
  0
LINE
  5
240
330
A3
100
AcDbEntity
  8
1
  6
Continuous
 62
     2
100
AcDbLine
 10
-1071.000000000009
 20
-1181.500000000008
 30
0.0
 11
-1022.666666666673
 21
-1181.500000000008
 31
0.0
  0
LINE
  5
241
330
A3
100
AcDbEntity
  8
1
  6
Continuous
 62
     2
100
AcDbLine
 10
-1071.000000000009
 20
-1181.500000000008
 30
0.0
 11
-1071.000000000009
 21
-1177.500000000008
 31
0.0
  0
LINE
  5
242
330
A3
100
AcDbEntity
  8
1
  6
Continuous
 62
     2
100
AcDbLine
 10
-1071.000000000009
 20
-1181.500000000008
 30
0.0
 11
-1091.000000000006
 21
-1181.500000000008
 31
0.0
  0
LINE
  5
243
330
A3
100
AcDbEntity
  8
1
  6
Continuous
 62
     2
100
AcDbLine
 10
-1281.000000000007
 20
-1181.500000000008
 30
0.0
 11
-1227.666666666673
 21
-1181.500000000008
 31
0.0
  0
LINE
  5
244
330
A3
100
AcDbEntity
  8
1
  6
Continuous
 62
     2
100
AcDbLine
 10
-1281.000000000007
 20
-1181.500000000008
 30
0.0
 11
-1281.000000000007
 21
-1177.500000000008
 31
0.0
  0
LINE
  5
245
330
A3
100
AcDbEntity
  8
1
  6
Continuous
 62
     2
100
AcDbLine
 10
-1159.333333333339
 20
-1181.500000000008
 30
0.0
 11
-1159.333333333339
 21
-1176.500000000008
 31
0.0
  0
LINE
  5
246
330
A3
100
AcDbEntity
  8
1
  6
Continuous
 62
     6
100
AcDbLine
 10
-1227.666666666673
 20
-1176.500000000008
 30
0.0
 11
-1281.000000000006
 21
-1176.500000000008
 31
0.0
  0
LINE
  5
247
330
A3
100
AcDbEntity
  8
1
  6
Continuous
 62
     6
100
AcDbLine
 10
-1227.666666666673
 20
-1176.500000000008
 30
0.0
 11
-1159.333333333339
 21
-1176.500000000008
 31
0.0
  0
LINE
  5
248
330
A3
100
AcDbEntity
  8
1
  6
Continuous
 62
     2
100
AcDbLine
 10
-1227.666666666673
 20
-1181.500000000008
 30
0.0
 11
-1159.333333333339
 21
-1181.500000000008
 31
0.0
  0
LINE
  5
249
330
A3
100
AcDbEntity
  8
1
  6
Continuous
 62
     2
100
AcDbLine
 10
-1227.666666666673
 20
-1181.500000000008
 30
0.0
 11
-1227.666666666673
 21
-1176.500000000008
 31
0.0
  0
LINE
  5
24A
330
A3
100
AcDbEntity
  8
1
  6
Continuous
 62
     2
100
AcDbLine
 10
-1281.000000000007
 20
-1181.500000000008
 30
0.0
 11
-1301.000000000007
 21
-1181.500000000008
 31
0.0
  0
LINE
  5
24B
330
A3
100
AcDbEntity
  8
1
  6
Continuous
 62
     2
100
AcDbLine
 10
-881.0000000000084
 20
-1119.100000000007
 30
0.0
 11
-886.000000000006
 21
-1119.100000000007
 31
0.0
  0
LINE
  5
24C
330
A3
100
AcDbEntity
  8
1
  6
Continuous
 62
     2
100
AcDbLine
 10
-881.0000000000084
 20
-1119.100000000007
 30
0.0
 11
-881.0000000000084
 21
-1061.700000000007
 31
0.0
  0
LINE
  5
24D
330
A3
100
AcDbEntity
  8
1
  6
Continuous
 62
     2
100
AcDbLine
 10
-1091.000000000006
 20
-1181.500000000008
 30
0.0
 11
-1091.000000000006
 21
-1176.500000000008
 31
0.0
  0
LINE
  5
24E
330
A3
100
AcDbEntity
  8
1
  6
Continuous
 62
     2
100
AcDbLine
 10
-1022.666666666673
 20
-1181.500000000008
 30
0.0
 11
-1022.666666666673
 21
-1176.500000000011
 31
0.0
  0
LINE
  5
24F
330
A3
100
AcDbEntity
  8
1
  6
Continuous
 62
     2
100
AcDbLine
 10
-954.3333333333394
 20
-1181.500000000008
 30
0.0
 11
-954.3333333333394
 21
-1176.500000000008
 31
0.0
  0
LINE
  5
250
330
A3
100
AcDbEntity
  8
1
  6
Continuous
 62
     2
100
AcDbLine
 10
-954.3333333333394
 20
-1181.500000000008
 30
0.0
 11
-886.0000000000059
 21
-1181.500000000008
 31
0.0
  0
LINE
  5
251
330
A3
100
AcDbEntity
  8
1
  6
Continuous
 62
     2
100
AcDbLine
 10
-1091.000000000006
 20
-1181.500000000008
 30
0.0
 11
-1159.333333333339
 21
-1181.500000000008
 31
0.0
  0
LINE
  5
252
330
A3
100
AcDbEntity
  8
1
  6
Continuous
 62
     6
100
AcDbLine
 10
-886.0000000000069
 20
-1155.250000000008
 30
0.0
 11
-886.000000000006
 21
-1119.100000000007
 31
0.0
  0
LINE
  5
253
330
A3
100
AcDbEntity
  8
1
  6
Continuous
 62
     6
100
AcDbLine
 10
-886.0000000000059
 20
-1159.500000000008
 30
0.0
 11
-886.0000000000069
 21
-1155.250000000008
 31
0.0
  0
LINE
  5
254
330
A3
100
AcDbEntity
  8
1
  6
Continuous
 62
     6
100
AcDbLine
 10
-886.0000000000064
 20
-1168.000000000008
 30
0.0
 11
-886.0000000000059
 21
-1159.500000000008
 31
0.0
  0
LINE
  5
255
330
A3
100
AcDbEntity
  8
1
  6
Continuous
 62
     6
100
AcDbLine
 10
-954.3333333333394
 20
-1176.500000000008
 30
0.0
 11
-886.000000000006
 21
-1176.500000000008
 31
0.0
  0
ARC
  5
256
102
{ACAD_REACTORS
330
2D1
330
2D2
102
}
330
A3
100
AcDbEntity
  8
0
  6
Continuous
 62
     2
100
AcDbCircle
 10
-1003.173303502106
 20
-1170.992276183342
 30
0.0
 40
4.852596863497347
100
AcDbArc
 50
74.0200087416418
 51
84.84185523037584
  0
ARC
  5
257
102
{ACAD_REACTORS
330
2D1
330
2D2
102
}
330
A3
100
AcDbEntity
  8
0
  6
Continuous
 62
     2
100
AcDbCircle
 10
-1002.597262893353
 20
-1167.836515827458
 30
0.0
 40
0.9059297849858621
100
AcDbArc
 50
71.5519238818535
 51
113.3722778881394
  0
ARC
  5
258
102
{ACAD_REACTORS
330
2D1
330
2D2
102
}
330
A3
100
AcDbEntity
  8
0
  6
Continuous
 62
     2
100
AcDbCircle
 10
-1002.753702926055
 20
-1167.884666667425
 30
0.0
 40
0.5115800601948827
100
AcDbArc
 50
208.5214732577052
 51
246.627722111806
  0
ARC
  5
259
102
{ACAD_REACTORS
330
2D1
330
2D2
102
}
330
A3
100
AcDbEntity
  8
0
  6
Continuous
 62
     2
100
AcDbCircle
 10
-1002.597262893353
 20
-1167.522674648715
 30
0.0
 40
0.9059297849846808
100
AcDbArc
 50
246.6277221118606
 51
288.4480761181692
  0
ARC
  5
25A
102
{ACAD_REACTORS
330
2D1
330
2D2
102
}
330
A3
100
AcDbEntity
  8
0
  6
Continuous
 62
     2
100
AcDbCircle
 10
-1003.015430627014
 20
-1166.269128872678
 30
0.0
 40
2.227384008972719
100
AcDbArc
 50
288.4480761181429
 51
301.9309089499845
  0
ARC
  5
25B
102
{ACAD_REACTORS
330
2CD
330
2CE
102
}
330
A3
100
AcDbEntity
  8
0
  6
Continuous
 62
     2
100
AcDbCircle
 10
-1008.24050435962
 20
-1165.536626843764
 30
0.0
 40
0.9118481501442193
100
AcDbArc
 50
295.3740086781322
 51
64.62599132186779
  0
ARC
  5
25C
102
{ACAD_REACTORS
330
2CD
330
2CE
102
}
330
A3
100
AcDbEntity
  8
0
  6
Continuous
 62
     2
100
AcDbCircle
 10
-1007.714461661532
 20
-1163.821949955289
 30
0.0
 40
0.3157169230760164
100
AcDbArc
 50
90.1889670426646
 51
180.0
  0
ARC
  5
25D
102
{ACAD_REACTORS
330
2CF
330
2D0
102
}
330
A3
100
AcDbEntity
  8
0
  6
Continuous
 62
     2
100
AcDbCircle
 10
-986.504331448698
 20
-1167.89247878913
 30
0.0
 40
0.9545230068260935
100
AcDbArc
 50
90.0
 51
109.3371432194401
  0
ARC
  5
25E
102
{ACAD_REACTORS
330
2CF
330
2D0
102
}
330
A3
100
AcDbEntity
  8
0
  6
Continuous
 62
     2
100
AcDbCircle
 10
-986.2736441887203
 20
-1167.679595238086
 30
0.0
 40
0.9410597353349766
100
AcDbArc
 50
151.4785267423711
 51
208.5214732576775
  0
ARC
  5
25F
102
{ACAD_REACTORS
330
2CF
330
2D0
102
}
330
A3
100
AcDbEntity
  8
0
  6
Continuous
 62
     2
100
AcDbCircle
 10
-986.4945614140986
 20
-1167.522674648715
 30
0.0
 40
0.9059297849850417
100
AcDbArc
 50
246.6277221118078
 51
288.4480761180692
  0
ARC
  5
260
102
{ACAD_REACTORS
330
2CF
330
2D0
102
}
330
A3
100
AcDbEntity
  8
0
  6
Continuous
 62
     2
100
AcDbCircle
 10
-986.9127291477606
 20
-1166.269128872678
 30
0.0
 40
2.227384008973474
100
AcDbArc
 50
288.4480761181272
 51
301.9309089499398
  0
ARC
  5
261
102
{ACAD_REACTORS
330
2CF
330
2D0
102
}
330
A3
100
AcDbEntity
  8
0
  6
Continuous
 62
     2
100
AcDbCircle
 10
-987.0706020228533
 20
-1164.36691429283
 30
0.0
 40
4.852596863499167
100
AcDbArc
 50
275.1581447696363
 51
285.9799912583397
  0
ARC
  5
262
102
{ACAD_REACTORS
330
2CF
330
2D0
102
}
330
A3
100
AcDbEntity
  8
0
  6
Continuous
 62
     2
100
AcDbCircle
 10
-986.7817459281175
 20
-1167.566804876052
 30
0.0
 40
1.639695123940421
100
AcDbArc
 50
195.0618917771015
 51
275.1581447696774
  0
ARC
  5
263
102
{ACAD_REACTORS
330
2C7
330
2C8
102
}
330
A3
100
AcDbEntity
  8
0
  6
Continuous
 62
     2
100
AcDbCircle
 10
-1002.509959239809
 20
-1163.84886564134
 30
0.0
 40
1.055365641333992
100
AcDbArc
 50
270.0
 51
90.0
  0
ARC
  5
264
102
{ACAD_REACTORS
330
2CD
330
2CE
102
}
330
A3
100
AcDbEntity
  8
0
  6
Continuous
 62
     2
100
AcDbCircle
 10
-1010.290010348064
 20
-1168.178227521358
 30
0.0
 40
0.3157169230760246
100
AcDbArc
 50
180.0
 51
270.0
  0
ARC
  5
265
102
{ACAD_REACTORS
330
2CD
330
2CE
102
}
330
A3
100
AcDbEntity
  8
0
  6
Continuous
 62
     2
100
AcDbCircle
 10
-1008.814177087055
 20
-1163.821772478641
 30
0.0
 40
0.3157169230769341
100
AcDbArc
 50
0.0
 51
90.0
  0
ARC
  5
266
102
{ACAD_REACTORS
330
2CD
330
2CE
102
}
330
A3
100
AcDbEntity
  8
0
  6
Continuous
 62
     2
100
AcDbCircle
 10
-1008.814177087055
 20
-1164.425797097702
 30
0.0
 40
0.3157169230758993
100
AcDbArc
 50
295.1944106486726
 51
0.0
  0
ARC
  5
267
102
{ACAD_REACTORS
330
2CD
330
2CE
102
}
330
A3
100
AcDbEntity
  8
0
  6
Continuous
 62
     2
100
AcDbCircle
 10
-1008.814177087055
 20
-1168.178227521358
 30
0.0
 40
0.3157169230771615
100
AcDbArc
 50
270.0
 51
0.0
  0
ARC
  5
268
102
{ACAD_REACTORS
330
2CD
330
2CE
102
}
330
A3
100
AcDbEntity
  8
0
  6
Continuous
 62
     2
100
AcDbCircle
 10
-1010.883905024811
 20
-1163.217744615408
 30
0.0
 40
0.424244615383941
100
AcDbArc
 50
90.0
 51
180.0
  0
ARC
  5
269
102
{ACAD_REACTORS
330
2CD
330
2CE
102
}
330
A3
100
AcDbEntity
  8
0
  6
Continuous
 62
     2
100
AcDbCircle
 10
-1005.410592934094
 20
-1163.217744615408
 30
0.0
 40
0.424244615383941
100
AcDbArc
 50
0.0
 51
90.0
  0
ARC
  5
26A
102
{ACAD_REACTORS
330
2CD
330
2CE
102
}
330
A3
100
AcDbEntity
  8
0
  6
Continuous
 62
     2
100
AcDbCircle
 10
-1005.410592934094
 20
-1168.782255384609
 30
0.0
 40
0.4242446153830315
100
AcDbArc
 50
270.0
 51
0.0
  0
ARC
  5
26B
102
{ACAD_REACTORS
330
2CB
330
2CC
102
}
330
A3
100
AcDbEntity
  8
0
  6
Continuous
 62
     2
100
AcDbCircle
 10
-996.1922090470022
 20
-1164.320404761912
 30
0.0
 40
0.7717997786795957
100
AcDbArc
 50
321.8795802028306
 51
38.1204197971694
  0
ARC
  5
26C
102
{ACAD_REACTORS
330
2CB
330
2CC
102
}
330
A3
100
AcDbEntity
  8
0
  6
Continuous
 62
     2
100
AcDbCircle
 10
-995.992469010656
 20
-1164.477135940033
 30
0.0
 40
0.517908573013281
100
AcDbArc
 50
218.1204197971087
 51
321.8795802028835
  0
ARC
  5
26D
102
{ACAD_REACTORS
330
2C9
330
2CA
102
}
330
A3
100
AcDbEntity
  8
0
  6
Continuous
 62
     2
100
AcDbCircle
 10
-999.6724765996163
 20
-1167.679595238086
 30
0.0
 40
1.458034083652521
100
AcDbArc
 50
297.5481481756942
 51
62.45185182428514
  0
ARC
  5
26E
102
{ACAD_REACTORS
330
2C9
330
2CA
102
}
330
A3
100
AcDbEntity
  8
0
  6
Continuous
 62
     2
100
AcDbCircle
 10
-1000.234356383283
 20
-1167.679595238086
 30
0.0
 40
1.458034083650777
100
AcDbArc
 50
117.5481481756594
 51
242.4518518243613
  0
ARC
  5
26F
102
{ACAD_REACTORS
330
2C9
330
2CA
102
}
330
A3
100
AcDbEntity
  8
0
  6
Continuous
 62
     2
100
AcDbCircle
 10
-999.9534164914495
 20
-1168.218170248389
 30
0.0
 40
2.06547977220824
100
AcDbArc
 50
62.45185182430162
 51
117.5481481756648
  0
ARC
  5
270
102
{ACAD_REACTORS
330
2C9
330
2CA
102
}
330
A3
100
AcDbEntity
  8
0
  6
Continuous
 62
     2
100
AcDbCircle
 10
-999.9534164914495
 20
-1167.141020227783
 30
0.0
 40
2.065479772208617
100
AcDbArc
 50
242.4518518243497
 51
297.5481481756838
  0
ARC
  5
271
102
{ACAD_REACTORS
330
2CB
330
2CC
102
}
330
A3
100
AcDbEntity
  8
0
  6
Continuous
 62
     2
100
AcDbCircle
 10
-995.7927289743097
 20
-1164.320404761912
 30
0.0
 40
0.7717997786797746
100
AcDbArc
 50
141.879580202841
 51
218.120419797159
  0
ARC
  5
272
102
{ACAD_REACTORS
330
2CB
330
2CC
102
}
330
A3
100
AcDbEntity
  8
0
  6
Continuous
 62
     2
100
AcDbCircle
 10
-995.992469010656
 20
-1164.163673583792
 30
0.0
 40
0.5179085730137529
100
AcDbArc
 50
38.12041979719563
 51
141.8795802028121
  0
ARC
  5
273
102
{ACAD_REACTORS
330
2CD
330
2CE
102
}
330
A3
100
AcDbEntity
  8
0
  6
Continuous
 62
     2
100
AcDbCircle
 10
-1010.883905024811
 20
-1168.782255384609
 30
0.0
 40
0.4242446153820083
100
AcDbArc
 50
180.0
 51
270.0
  0
ARC
  5
274
102
{ACAD_REACTORS
330
2CD
330
2CE
102
}
330
A3
100
AcDbEntity
  8
0
  6
Continuous
 62
     2
100
AcDbCircle
 10
-1008.814177087055
 20
-1166.647456589827
 30
0.0
 40
0.3157169230769341
100
AcDbArc
 50
0.0
 51
64.80558935139767
  0
ARC
  5
275
102
{ACAD_REACTORS
330
2CD
330
2CE
102
}
330
A3
100
AcDbEntity
  8
0
  6
Continuous
 62
     2
100
AcDbCircle
 10
-1008.29159263948
 20
-1165.536626843764
 30
0.0
 40
0.9118975235577705
100
AcDbArc
 50
115.1944106484861
 51
244.8055893515139
  0
ARC
  5
276
102
{ACAD_REACTORS
330
2CD
330
2CE
102
}
330
A3
100
AcDbEntity
  8
0
  6
Continuous
 62
     2
100
AcDbCircle
 10
-1010.290010348064
 20
-1163.821772478641
 30
0.0
 40
0.3157169230760246
100
AcDbArc
 50
90.0
 51
180.0
  0
ARC
  5
277
102
{ACAD_REACTORS
330
2C7
330
2C8
102
}
330
A3
100
AcDbEntity
  8
0
  6
Continuous
 62
     2
100
AcDbCircle
 10
-1002.951431766047
 20
-1163.809469670118
 30
0.0
 40
0.3528638246709761
100
AcDbArc
 50
270.0
 51
90.0
  0
ARC
  5
278
102
{ACAD_REACTORS
330
2CB
330
2CC
102
}
330
A3
100
AcDbEntity
  8
0
  6
Continuous
 62
     2
100
AcDbCircle
 10
-996.2087410208212
 20
-1164.320404761912
 30
0.0
 40
1.526904761906053
100
AcDbArc
 50
90.0
 51
270.0
  0
ARC
  5
279
102
{ACAD_REACTORS
330
2CF
330
2D0
102
}
330
A3
100
AcDbEntity
  8
0
  6
Continuous
 62
     2
100
AcDbCircle
 10
-986.7817459281175
 20
-1167.792385600121
 30
0.0
 40
1.639695123939873
100
AcDbArc
 50
90.0
 51
164.9381082228985
  0
ARC
  5
27A
102
{ACAD_REACTORS
330
2CF
330
2D0
102
}
330
A3
100
AcDbEntity
  8
0
  6
Continuous
 62
     2
100
AcDbCircle
 10
-987.2008737715792
 20
-1167.679595238086
 30
0.0
 40
1.205656168392903
100
AcDbArc
 50
164.9381082229099
 51
195.0618917771318
  0
ARC
  5
27B
102
{ACAD_REACTORS
330
2CF
330
2D0
102
}
330
A3
100
AcDbEntity
  8
0
  6
Continuous
 62
     2
100
AcDbCircle
 10
-986.6510014468017
 20
-1167.884666667425
 30
0.0
 40
0.5115800601958815
100
AcDbArc
 50
208.5214732576444
 51
246.6277221118294
  0
ARC
  5
27C
102
{ACAD_REACTORS
330
2CF
330
2D0
102
}
330
A3
100
AcDbEntity
  8
0
  6
Continuous
 62
     2
100
AcDbCircle
 10
-986.6510014468017
 20
-1167.474523808747
 30
0.0
 40
0.5115800601937612
100
AcDbArc
 50
109.3371432195076
 51
151.4785267424227
  0
ARC
  5
27D
102
{ACAD_REACTORS
330
2CD
330
2CE
102
}
330
A3
100
AcDbEntity
  8
0
  6
Continuous
 62
     2
100
AcDbCircle
 10
-1007.714461661532
 20
-1167.227619850427
 30
0.0
 40
0.3157169230769341
100
AcDbArc
 50
180.0
 51
269.8110329573356
  0
ARC
  5
27E
102
{ACAD_REACTORS
330
2CD
330
2CE
102
}
330
A3
100
AcDbEntity
  8
0
  6
Continuous
 62
     2
100
AcDbCircle
 10
-1007.708845526222
 20
-1165.524784902858
 30
0.0
 40
2.018561131933154
100
AcDbArc
 50
269.8110329575681
 51
90.1889670424319
  0
ARC
  5
27F
102
{ACAD_REACTORS
330
2CD
330
2CE
102
}
330
A3
100
AcDbEntity
  8
0
  6
Continuous
 62
     2
100
AcDbCircle
 10
-1007.714461661532
 20
-1164.427485243796
 30
0.0
 40
0.3157169230769341
100
AcDbArc
 50
180.0
 51
244.625991321482
  0
ARC
  5
280
102
{ACAD_REACTORS
330
2CD
330
2CE
102
}
330
A3
100
AcDbEntity
  8
0
  6
Continuous
 62
     2
100
AcDbCircle
 10
-1007.714461661532
 20
-1166.645768443732
 30
0.0
 40
0.3157169230765265
100
AcDbArc
 50
115.374008678518
 51
180.0
  0
ARC
  5
281
102
{ACAD_REACTORS
330
2D1
330
2D2
102
}
330
A3
100
AcDbEntity
  8
0
  6
Continuous
 62
     2
100
AcDbCircle
 10
-1002.88444740737
 20
-1167.792385600121
 30
0.0
 40
1.639695123940203
100
AcDbArc
 50
84.84185523036938
 51
164.9381082228985
  0
ARC
  5
282
102
{ACAD_REACTORS
330
2D1
330
2D2
102
}
330
A3
100
AcDbEntity
  8
0
  6
Continuous
 62
     2
100
AcDbCircle
 10
-1003.303575250833
 20
-1167.679595238086
 30
0.0
 40
1.205656168391586
100
AcDbArc
 50
164.938108222893
 51
195.061891777107
  0
ARC
  5
283
102
{ACAD_REACTORS
330
2D1
330
2D2
102
}
330
A3
100
AcDbEntity
  8
0
  6
Continuous
 62
     2
100
AcDbCircle
 10
-1002.88444740737
 20
-1167.566804876052
 30
0.0
 40
1.639695123940184
100
AcDbArc
 50
195.0618917770708
 51
275.1581447696335
  0
ARC
  5
284
102
{ACAD_REACTORS
330
2D1
330
2D2
102
}
330
A3
100
AcDbEntity
  8
0
  6
Continuous
 62
     2
100
AcDbCircle
 10
-1003.173303502106
 20
-1164.36691429283
 30
0.0
 40
4.852596863497932
100
AcDbArc
 50
275.1581447696242
 51
285.9799912583553
  0
ARC
  5
285
102
{ACAD_REACTORS
330
2D1
330
2D2
102
}
330
A3
100
AcDbEntity
  8
0
  6
Continuous
 62
     2
100
AcDbCircle
 10
-1002.376345667974
 20
-1167.679595238086
 30
0.0
 40
0.941059735333578
100
AcDbArc
 50
151.4785267423248
 51
208.5214732577238
  0
ARC
  5
286
102
{ACAD_REACTORS
330
2D1
330
2D2
102
}
330
A3
100
AcDbEntity
  8
0
  6
Continuous
 62
     2
100
AcDbCircle
 10
-1002.753702926055
 20
-1167.474523808747
 30
0.0
 40
0.5115800601943638
100
AcDbArc
 50
113.3722778882344
 51
151.4785267423619
  0
ARC
  5
287
102
{ACAD_REACTORS
330
2D1
330
2D2
102
}
330
A3
100
AcDbEntity
  8
0
  6
Continuous
 62
     2
100
AcDbCircle
 10
-1003.015430627014
 20
-1169.090061603495
 30
0.0
 40
2.227384008974247
100
AcDbArc
 50
58.06909105001861
 51
71.5519238818663
  0
ARC
  5
288
102
{ACAD_REACTORS
330
2C9
330
2CA
102
}
330
A3
100
AcDbEntity
  8
0
  6
Continuous
 62
     2
100
AcDbCircle
 10
-999.9534164914495
 20
-1167.522864059966
 30
0.0
 40
0.517908573013574
100
AcDbArc
 50
38.12041979721116
 51
141.8795802028432
  0
ARC
  5
289
102
{ACAD_REACTORS
330
2C9
330
2CA
102
}
330
A3
100
AcDbEntity
  8
0
  6
Continuous
 62
     2
100
AcDbCircle
 10
-999.7536764551035
 20
-1167.679595238086
 30
0.0
 40
0.7717997786799534
100
AcDbArc
 50
141.8795802028515
 51
218.1204197971485
  0
ARC
  5
28A
102
{ACAD_REACTORS
330
2C9
330
2CA
102
}
330
A3
100
AcDbEntity
  8
0
  6
Continuous
 62
     2
100
AcDbCircle
 10
-999.9534164914495
 20
-1167.836326416206
 30
0.0
 40
0.5179085730142001
100
AcDbArc
 50
218.1204197971568
 51
321.8795802027889
  0
ARC
  5
28B
102
{ACAD_REACTORS
330
2C9
330
2CA
102
}
330
A3
100
AcDbEntity
  8
0
  6
Continuous
 62
     2
100
AcDbCircle
 10
-1000.153156527796
 20
-1167.679595238086
 30
0.0
 40
0.7717997786796852
100
AcDbArc
 50
321.8795802028358
 51
38.12041979716419
  0
CIRCLE
  5
28C
330
A3
100
AcDbEntity
  8
1
  6
Continuous
 62
     2
100
AcDbCircle
 10
-1002.808149640193
 20
-1155.375000000008
 30
0.0
 40
2.5
  0
CIRCLE
  5
28D
330
A3
100
AcDbEntity
  8
1
  6
Continuous
 62
     2
100
AcDbCircle
 10
-1002.808149640193
 20
-1155.375000000008
 30
0.0
 40
1.25
  0
CIRCLE
  5
28E
102
{ACAD_REACTORS
330
2CD
330
2CE
102
}
330
A3
100
AcDbEntity
  8
0
  6
Continuous
 62
     2
100
AcDbCircle
 10
-1008.264319374293
 20
-1165.536626843764
 30
0.0
 40
0.470978932777939
  0
MTEXT
  5
28F
330
A3
100
AcDbEntity
  8
1
 62
     3
100
AcDbMText
 10
-1282.577326688653
 20
-1176.473085900507
 30
0.0
 40
1.8
 41
0.0
 71
     7
 72
     1
  3
Weitergabe sowie Vervielfältigung dieses Dokuments, Verwertung und \PMitteilung seines Inhalts sind verboten, soweit nicht ausdrücklich gestattet. \PZuwiderhandlungen verpflichten zu Schadenersatz. Alle Rechte für den Fall\Pder Patent-, Gebrauchsmus
  1
ter- oder Designeintragung vorbehalten.
  7
CONVERTER_11
 11
0.0
 21
1.0
 31
0.0
 73
     1
 44
0.99639855942377
  0
MTEXT
  5
290
330
A3
100
AcDbEntity
  8
1
 62
     3
100
AcDbMText
 10
-1282.731532999747
 20
-1003.513715886354
 30
0.0
 40
1.8
 41
0.0
 71
     7
 72
     1
  3
Transfer or duplication of this document as well as the utilisation or\Pcommunication of its content are not permitted unless express consen\Pis granted. Violations give rise to claims for damages. All rights reserved\Pin case of patent, utility mod
  1
el or design patent registrations.
  7
CONVERTER_11
 11
0.0
 21
1.0
 31
0.0
 73
     1
 44
0.99639855942377
  0
TEXT
  5
291
330
A3
100
AcDbEntity
  8
1
 62
     2
100
AcDbText
 10
-996.3448045267561
 20
-1175.259017215
 30
0.0
 40
1.8
  1
of
 41
0.9
  7
CONVERTER_11
100
AcDbText
  0
TEXT
  5
292
330
A3
100
AcDbEntity
  8
1
 62
     2
100
AcDbText
 10
-1014.544804526756
 20
-1175.259017215
 30
0.0
 40
1.8
  1
page
 41
0.9
  7
CONVERTER_11
100
AcDbText
  0
TEXT
  5
293
330
A3
100
AcDbEntity
  8
1
 62
     2
100
AcDbText
 10
-1005.898539556414
 20
-1175.29924865381
 30
0.0
 40
1.8
  1
1
 41
0.9
  7
CONVERTER_11
100
AcDbText
  0
TEXT
  5
294
330
A3
100
AcDbEntity
  8
1
 62
     2
100
AcDbText
 10
-991.1094957169423
 20
-1175.250000000008
 30
0.0
 40
1.8
  1
1
 41
0.9
  7
CONVERTER_11
100
AcDbText
  0
MTEXT
  5
296
330
A3
100
AcDbEntity
  8
1
 62
     7
100
AcDbMText
 10
-932.5724022633805
 20
-1173.250000000008
 30
0.0
 40
3.0
 41
0.0
 71
     5
 72
     1
  1
PLD M-ME MB/D70
  7
CONVERTER_12
 73
     1
 44
1.20048019207683
  0
MTEXT
  5
297
330
A3
100
AcDbEntity
  8
1
 62
     2
100
AcDbMText
 10
-978.1448045267559
 20
-1169.000000000008
 30
0.0
 40
1.8
 41
0.0
 71
     1
 72
     1
  1
description
  7
CONVERTER_11
 73
     1
 44
1.20048019207683
  0
MTEXT
  5
298
330
A3
100
AcDbEntity
  8
1
 62
     3
100
AcDbMText
 10
-989.344804526756
 20
-1155.375000000008
 30
0.0
 40
2.5
 41
0.0
 71
     5
 72
     1
  1
DIN A3
  7
CONVERTER_11
 73
     1
 44
1.20048019207683
  0
MTEXT
  5
299
330
A3
100
AcDbEntity
  8
1
 62
     2
100
AcDbMText
 10
-1049.955827795965
 20
-1163.750000000009
 30
0.0
 40
2.0
 41
0.0
 71
     5
 72
     1
  1
General Information\P- Simplified representation\P- Document excluded from change process\P- Linear dimensions [mm]
  7
CONVERTER_11
 73
     1
 44
1.20048019207683
  0
TEXT
  5
29A
330
A3
100
AcDbEntity
  8
1
 62
     7
100
AcDbText
 10
-977.6448045267562
 20
-1166.700000000008
 30
0.0
 40
2.5
  1
2702494
 41
0.81
  7
CONVERTER_12
100
AcDbText
  0
MTEXT
  5
29B
330
A3
100
AcDbEntity
  8
1
 62
     2
100
AcDbMText
 10
-978.044804526756
 20
-1160.500000000008
 30
0.0
 40
1.8
 41
0.0
 71
     1
 72
     1
  1
ident.-No.
  7
CONVERTER_11
 73
     1
 44
1.20048019207683
  0
MTEXT
  5
29C
330
A3
100
AcDbEntity
  8
1
 62
     2
100
AcDbMText
 10
-893.8184082816832
 20
-1152.000000000008
 30
0.0
 40
1.8
 41
0.0
 71
     1
 72
     1
  1
scale
  7
CONVERTER_11
 73
     1
 44
1.20048019207683
  0
MTEXT
  5
29E
330
A3
100
AcDbEntity
  8
1
 62
     3
100
AcDbMText
 10
-890.4592041408437
 20
-1158.200000000008
 30
0.0
 40
2.5
 41
0.0
 71
     8
 72
     1
  1
1:1
  7
CONVERTER_13
 73
     1
 44
1.32052821128451
  0
TEXT
  5
29F
330
A3
100
AcDbEntity
  8
1
 62
     7
100
AcDbText
 10
-978.044804526756
 20
-1158.200000000008
 30
0.0
 40
2.5
  1
00896023
 41
0.81
  7
CONVERTER_12
100
AcDbText
  0
MTEXT
  5
2A1
330
A3
100
AcDbEntity
  8
1
 62
     2
100
AcDbMText
 10
-978.044804526756
 20
-1152.000000000008
 30
0.0
 40
1.8
 41
0.0
 71
     1
 72
     1
  1
document-No. / RI
  7
CONVERTER_14
 73
     1
 44
1.32052821128451
  0
TEXT
  5
2A2
330
A3
100
AcDbEntity
  8
1
 62
     3
100
AcDbText
 10
-950.244804526756
 20
-1166.700000000008
 30
0.0
 40
2.5
  1
TECDOC 2D_Productdrawing
 41
0.81
  7
CONVERTER_12
100
AcDbText
  0
MTEXT
  5
2A3
330
A3
100
AcDbEntity
  8
1
 62
     2
100
AcDbMText
 10
-950.244804526756
 20
-1160.500000000008
 30
0.0
 40
1.8
 41
0.0
 71
     1
 72
     1
  1
document-type
  7
CONVERTER_11
 73
     1
 44
1.20048019207683
  0
MTEXT
  5
2A4
330
A3
100
AcDbEntity
  8
1
 62
     2
100
AcDbMText
 10
-920.418408281683
 20
-1152.000000000008
 30
0.0
 40
1.8
 41
0.0
 71
     1
 72
     1
  1
date
  7
CONVERTER_11
 73
     1
 44
1.32052821128451
  0
TEXT
  5
2A5
330
A3
100
AcDbEntity
  8
1
 62
     3
100
AcDbText
 10
-920.418408281683
 20
-1158.200000000008
 30
0.0
 40
2.5
  1
30.07.2019
 41
0.81
  7
CONVERTER_12
100
AcDbText
  0
TEXT
  5
2A6
330
A3
100
AcDbEntity
  8
1
 62
     7
100
AcDbText
 10
-958.0148923077002
 20
-1158.200000000008
 30
0.0
 40
2.5
  1
02
 41
0.81
  7
CONVERTER_12
100
AcDbText
  0
TEXT
  5
2A7
330
A3
100
AcDbEntity
  8
1
 62
     7
100
AcDbText
 10
-960.1712568047421
 20
-1158.200000000008
 30
0.0
 40
2.5
  1
/
 41
0.9
  7
CONVERTER_11
100
AcDbText
  0
TEXT
  5
2A8
330
A3
100
AcDbEntity
  8
1
 62
     7
100
AcDbText
 10
-1263.000000000006
 20
-888.5000000000073
 30
0.0
 40
2.5
  1
1
 41
0.9
  7
CONVERTER_11
100
AcDbText
  0
TEXT
  5
2A9
330
A3
100
AcDbEntity
  8
1
 62
     7
100
AcDbText
 10
-1194.666666666673
 20
-888.5000000000073
 30
0.0
 40
2.5
  1
2
 41
0.9
  7
CONVERTER_11
100
AcDbText
  0
TEXT
  5
2AA
330
A3
100
AcDbEntity
  8
1
 62
     7
100
AcDbText
 10
-1126.333333333339
 20
-888.5000000000073
 30
0.0
 40
2.5
  1
3
 41
0.9
  7
CONVERTER_11
100
AcDbText
  0
TEXT
  5
2AB
330
A3
100
AcDbEntity
  8
1
 62
     7
100
AcDbText
 10
-1058.000000000006
 20
-888.5000000000073
 30
0.0
 40
2.5
  1
4
 41
0.9
  7
CONVERTER_11
100
AcDbText
  0
TEXT
  5
2AC
330
A3
100
AcDbEntity
  8
1
 62
     7
100
AcDbText
 10
-989.6666666666725
 20
-888.5000000000073
 30
0.0
 40
2.5
  1
5
 41
0.9
  7
CONVERTER_11
100
AcDbText
  0
TEXT
  5
2AD
330
A3
100
AcDbEntity
  8
1
 62
     7
100
AcDbText
 10
-921.3333333333394
 20
-888.5000000000073
 30
0.0
 40
2.5
  1
6
 41
0.9
  7
CONVERTER_11
100
AcDbText
  0
TEXT
  5
2AE
330
A3
100
AcDbEntity
  8
1
 62
     7
100
AcDbText
 10
-885.0000000000059
 20
-919.4000000000076
 30
0.0
 40
2.5
  1
A
 41
0.9
  7
CONVERTER_11
100
AcDbText
  0
TEXT
  5
2AF
330
A3
100
AcDbEntity
  8
1
 62
     7
100
AcDbText
 10
-885.0000000000059
 20
-976.8000000000075
 30
0.0
 40
2.5
  1
B
 41
0.9
  7
CONVERTER_11
100
AcDbText
  0
TEXT
  5
2B0
330
A3
100
AcDbEntity
  8
1
 62
     7
100
AcDbText
 10
-885.0000000000059
 20
-1034.200000000007
 30
0.0
 40
2.5
  1
C
 41
0.9
  7
CONVERTER_11
100
AcDbText
  0
TEXT
  5
2B1
330
A3
100
AcDbEntity
  8
1
 62
     7
100
AcDbText
 10
-885.0000000000059
 20
-1091.600000000007
 30
0.0
 40
2.5
  1
D
 41
0.9
  7
CONVERTER_11
100
AcDbText
  0
TEXT
  5
2B2
330
A3
100
AcDbEntity
  8
1
 62
     7
100
AcDbText
 10
-1194.666666666673
 20
-1180.500000000008
 30
0.0
 40
2.5
  1
2
 41
0.9
  7
CONVERTER_11
100
AcDbText
  0
TEXT
  5
2B3
330
A3
100
AcDbEntity
  8
1
 62
     7
100
AcDbText
 10
-1263.000000000006
 20
-1180.500000000008
 30
0.0
 40
2.5
  1
1
 41
0.9
  7
CONVERTER_11
100
AcDbText
  0
TEXT
  5
2B4
330
A3
100
AcDbEntity
  8
1
 62
     7
100
AcDbText
 10
-885.0000000000059
 20
-1149.000000000008
 30
0.0
 40
2.5
  1
E
 41
0.9
  7
CONVERTER_11
100
AcDbText
  0
TEXT
  5
2B5
330
A3
100
AcDbEntity
  8
1
 62
     7
100
AcDbText
 10
-1126.333333333339
 20
-1180.500000000008
 30
0.0
 40
2.5
  1
3
 41
0.9
  7
CONVERTER_11
100
AcDbText
  0
TEXT
  5
2B6
330
A3
100
AcDbEntity
  8
1
 62
     7
100
AcDbText
 10
-1058.000000000006
 20
-1180.500000000008
 30
0.0
 40
2.5
  1
4
 41
0.9
  7
CONVERTER_11
100
AcDbText
  0
TEXT
  5
2B7
330
A3
100
AcDbEntity
  8
1
 62
     7
100
AcDbText
 10
-989.6666666666728
 20
-1180.500000000008
 30
0.0
 40
2.5
  1
5
 41
0.9
  7
CONVERTER_11
100
AcDbText
  0
TEXT
  5
2B8
330
A3
100
AcDbEntity
  8
1
 62
     7
100
AcDbText
 10
-921.3333333333394
 20
-1180.500000000008
 30
0.0
 40
2.5
  1
6
 41
0.9
  7
CONVERTER_11
100
AcDbText
  0
HATCH
  5
2B9
330
A3
100
AcDbEntity
  8
1
  6
Continuous
 62
     2
100
AcDbHatch
 10
0.0
 20
0.0
 30
0.0
210
0.0
220
0.0
230
1.0
  2
CUSTOM0
 70
     0
 71
     1
 91
        1
 92
        1
 93
       12
 72
     1
 10
-997.8773038137948
 20
-1165.847309523817
 11
-999.0700965159613
 21
-1165.847309523817
 72
     1
 10
-999.0700965159613
 20
-1165.847309523817
 11
-999.0700965159613
 21
-1164.713037414974
 72
     1
 10
-999.0700965159613
 20
-1164.713037414974
 11
-1000.119754093869
 21
-1164.713037414974
 72
     1
 10
-1000.119754093869
 20
-1164.713037414974
 11
-1000.119754093869
 21
-1165.847309523817
 72
     1
 10
-1000.119754093869
 20
-1165.847309523817
 11
-1001.312546796035
 21
-1165.847309523817
 72
     1
 10
-1001.312546796035
 20
-1165.847309523817
 11
-1001.312546796035
 21
-1162.793500000006
 72
     1
 10
-1001.312546796035
 20
-1162.793500000006
 11
-1000.119754093869
 21
-1162.793500000006
 72
     1
 10
-1000.119754093869
 20
-1162.793500000006
 11
-1000.119754093869
 21
-1163.862333333341
 72
     1
 10
-1000.119754093869
 20
-1163.862333333341
 11
-999.0700965159613
 21
-1163.862333333341
 72
     1
 10
-999.0700965159613
 20
-1163.862333333341
 11
-999.0700965159613
 21
-1162.793500000006
 72
     1
 10
-999.0700965159613
 20
-1162.793500000006
 11
-997.8773038137948
 21
-1162.793500000006
 72
     1
 10
-997.8773038137948
 20
-1162.793500000006
 11
-997.8773038137948
 21
-1165.847309523817
 97
       12
330
1E2
330
1E3
330
1CD
330
1CC
330
1CB
330
1DF
330
1CA
330
1E0
330
1E1
330
1C9
330
1C8
330
1C7
 75
     1
 76
     2
 52
45.0
 41
0.1
 77
     0
 78
     1
 53
45.0
 43
62.7811309658083
 44
-72.3161373035813
 45
-0.1414213562373095
 46
0.0
 79
     0
 98
        1
 10
0.0
 20
0.0
  0
HATCH
  5
2BA
330
A3
100
AcDbEntity
  8
1
  6
Continuous
 62
     2
100
AcDbHatch
 10
0.0
 20
0.0
 30
0.0
210
0.0
220
0.0
230
1.0
  2
CUSTOM1
 70
     0
 71
     1
 91
        1
 92
        1
 93
       12
 72
     1
 10
-997.8773038137948
 20
-1165.847309523817
 11
-999.0700965159613
 21
-1165.847309523817
 72
     1
 10
-999.0700965159613
 20
-1165.847309523817
 11
-999.0700965159613
 21
-1164.713037414974
 72
     1
 10
-999.0700965159613
 20
-1164.713037414974
 11
-1000.119754093869
 21
-1164.713037414974
 72
     1
 10
-1000.119754093869
 20
-1164.713037414974
 11
-1000.119754093869
 21
-1165.847309523817
 72
     1
 10
-1000.119754093869
 20
-1165.847309523817
 11
-1001.312546796035
 21
-1165.847309523817
 72
     1
 10
-1001.312546796035
 20
-1165.847309523817
 11
-1001.312546796035
 21
-1162.793500000006
 72
     1
 10
-1001.312546796035
 20
-1162.793500000006
 11
-1000.119754093869
 21
-1162.793500000006
 72
     1
 10
-1000.119754093869
 20
-1162.793500000006
 11
-1000.119754093869
 21
-1163.862333333341
 72
     1
 10
-1000.119754093869
 20
-1163.862333333341
 11
-999.0700965159613
 21
-1163.862333333341
 72
     1
 10
-999.0700965159613
 20
-1163.862333333341
 11
-999.0700965159613
 21
-1162.793500000006
 72
     1
 10
-999.0700965159613
 20
-1162.793500000006
 11
-997.8773038137948
 21
-1162.793500000006
 72
     1
 10
-997.8773038137948
 20
-1162.793500000006
 11
-997.8773038137948
 21
-1165.847309523817
 97
       12
330
1E2
330
1E3
330
1CD
330
1CC
330
1CB
330
1DF
330
1CA
330
1E0
330
1E1
330
1C9
330
1C8
330
1C7
 75
     1
 76
     2
 52
45.0
 41
0.1
 77
     0
 78
     1
 53
45.0
 43
62.7811309658083
 44
-72.3161373035813
 45
-0.1414213562373095
 46
0.0
 79
     0
 98
        1
 10
0.0
 20
0.0
  0
HATCH
  5
2BB
330
A3
100
AcDbEntity
  8
1
  6
Continuous
 62
     2
100
AcDbHatch
 10
0.0
 20
0.0
 30
0.0
210
0.0
220
0.0
230
1.0
  2
CUSTOM2
 70
     0
 71
     1
 91
        1
 92
        1
 93
       10
 72
     1
 10
-995.6350044646065
 20
-1167.461465986386
 11
-996.8755088748594
 21
-1166.152690476181
 72
     1
 10
-996.8755088748594
 20
-1166.152690476181
 11
-998.068301577027
 21
-1166.152690476181
 72
     1
 10
-998.068301577027
 20
-1166.152690476181
 11
-998.068301577027
 21
-1169.206499999992
 72
     1
 10
-998.068301577027
 20
-1169.206499999992
 11
-996.8755088748594
 21
-1169.206499999992
 72
     1
 10
-996.8755088748594
 20
-1169.206499999992
 11
-996.8755088748594
 21
-1167.897724489787
 72
     1
 10
-996.8755088748594
 20
-1167.897724489787
 11
-995.6350044646065
 21
-1169.206499999992
 72
     1
 10
-995.6350044646065
 20
-1169.206499999992
 11
-994.4422117624401
 21
-1169.206499999992
 72
     1
 10
-994.4422117624401
 20
-1169.206499999992
 11
-994.4422117624401
 21
-1166.152690476181
 72
     1
 10
-994.4422117624401
 20
-1166.152690476181
 11
-995.6350044646065
 21
-1166.152690476181
 72
     1
 10
-995.6350044646065
 20
-1166.152690476181
 11
-995.6350044646065
 21
-1167.461465986386
 97
       10
330
1F0
330
1C0
330
1BF
330
1C2
330
1EB
330
1EC
330
1C1
330
1ED
330
1EE
330
1EF
 75
     1
 76
     2
 52
45.0
 41
0.1
 77
     0
 78
     1
 53
45.0
 43
62.7811309658083
 44
-72.3161373035813
 45
-0.1414213562373095
 46
0.0
 79
     0
 98
        1
 10
0.0
 20
0.0
  0
HATCH
  5
2BC
330
A3
100
AcDbEntity
  8
1
  6
Continuous
 62
     2
100
AcDbHatch
 10
0.0
 20
0.0
 30
0.0
210
0.0
220
0.0
230
1.0
  2
CUSTOM3
 70
     0
 71
     1
 91
        1
 92
        1
 93
       10
 72
     1
 10
-995.6350044646065
 20
-1167.461465986386
 11
-996.8755088748594
 21
-1166.152690476181
 72
     1
 10
-996.8755088748594
 20
-1166.152690476181
 11
-998.068301577027
 21
-1166.152690476181
 72
     1
 10
-998.068301577027
 20
-1166.152690476181
 11
-998.068301577027
 21
-1169.206499999992
 72
     1
 10
-998.068301577027
 20
-1169.206499999992
 11
-996.8755088748594
 21
-1169.206499999992
 72
     1
 10
-996.8755088748594
 20
-1169.206499999992
 11
-996.8755088748594
 21
-1167.897724489787
 72
     1
 10
-996.8755088748594
 20
-1167.897724489787
 11
-995.6350044646065
 21
-1169.206499999992
 72
     1
 10
-995.6350044646065
 20
-1169.206499999992
 11
-994.4422117624401
 21
-1169.206499999992
 72
     1
 10
-994.4422117624401
 20
-1169.206499999992
 11
-994.4422117624401
 21
-1166.152690476181
 72
     1
 10
-994.4422117624401
 20
-1166.152690476181
 11
-995.6350044646065
 21
-1166.152690476181
 72
     1
 10
-995.6350044646065
 20
-1166.152690476181
 11
-995.6350044646065
 21
-1167.461465986386
 97
       10
330
1F0
330
1C0
330
1BF
330
1C2
330
1EB
330
1EC
330
1C1
330
1ED
330
1EE
330
1EF
 75
     1
 76
     2
 52
45.0
 41
0.1
 77
     0
 78
     1
 53
45.0
 43
62.7811309658083
 44
-72.3161373035813
 45
-0.1414213562373095
 46
0.0
 79
     0
 98
        1
 10
0.0
 20
0.0
  0
HATCH
  5
2BD
330
A3
100
AcDbEntity
  8
1
  6
Continuous
 62
     2
100
AcDbHatch
 10
0.0
 20
0.0
 30
0.0
210
0.0
220
0.0
230
1.0
  2
CUSTOM4
 70
     0
 71
     1
 91
        1
 92
        1
 93
       10
 72
     1
 10
-990.3865656441868
 20
-1164.102275510211
 11
-991.6270700544409
 21
-1162.793500000006
 72
     1
 10
-991.6270700544409
 20
-1162.793500000006
 11
-992.8198627566073
 21
-1162.793500000006
 72
     1
 10
-992.8198627566073
 20
-1162.793500000006
 11
-992.8198627566073
 21
-1165.847309523817
 72
     1
 10
-992.8198627566073
 20
-1165.847309523817
 11
-991.6270700544409
 21
-1165.847309523817
 72
     1
 10
-991.6270700544409
 20
-1165.847309523817
 11
-991.6270700544409
 21
-1164.538534013613
 72
     1
 10
-991.6270700544409
 20
-1164.538534013613
 11
-990.3865656441868
 21
-1165.847309523817
 72
     1
 10
-990.3865656441868
 20
-1165.847309523817
 11
-989.1937729420201
 21
-1165.847309523817
 72
     1
 10
-989.1937729420201
 20
-1165.847309523817
 11
-989.1937729420201
 21
-1162.793500000006
 72
     1
 10
-989.1937729420201
 20
-1162.793500000006
 11
-990.3865656441868
 21
-1162.793500000006
 72
     1
 10
-990.3865656441868
 20
-1162.793500000006
 11
-990.3865656441868
 21
-1164.102275510211
 97
       10
330
1F5
330
1BD
330
1BC
330
1F6
330
1BB
330
1F1
330
1F2
330
1F3
330
1F4
330
1BE
 75
     1
 76
     2
 52
45.0
 41
0.1
 77
     0
 78
     1
 53
45.0
 43
62.7811309658083
 44
-72.3161373035813
 45
-0.1414213562373095
 46
0.0
 79
     0
 98
        1
 10
0.0
 20
0.0
  0
HATCH
  5
2BE
330
A3
100
AcDbEntity
  8
1
  6
Continuous
 62
     2
100
AcDbHatch
 10
0.0
 20
0.0
 30
0.0
210
0.0
220
0.0
230
1.0
  2
CUSTOM5
 70
     0
 71
     1
 91
        1
 92
        1
 93
       10
 72
     1
 10
-990.3865656441868
 20
-1164.102275510211
 11
-991.6270700544409
 21
-1162.793500000006
 72
     1
 10
-991.6270700544409
 20
-1162.793500000006
 11
-992.8198627566073
 21
-1162.793500000006
 72
     1
 10
-992.8198627566073
 20
-1162.793500000006
 11
-992.8198627566073
 21
-1165.847309523817
 72
     1
 10
-992.8198627566073
 20
-1165.847309523817
 11
-991.6270700544409
 21
-1165.847309523817
 72
     1
 10
-991.6270700544409
 20
-1165.847309523817
 11
-991.6270700544409
 21
-1164.538534013613
 72
     1
 10
-991.6270700544409
 20
-1164.538534013613
 11
-990.3865656441868
 21
-1165.847309523817
 72
     1
 10
-990.3865656441868
 20
-1165.847309523817
 11
-989.1937729420201
 21
-1165.847309523817
 72
     1
 10
-989.1937729420201
 20
-1165.847309523817
 11
-989.1937729420201
 21
-1162.793500000006
 72
     1
 10
-989.1937729420201
 20
-1162.793500000006
 11
-990.3865656441868
 21
-1162.793500000006
 72
     1
 10
-990.3865656441868
 20
-1162.793500000006
 11
-990.3865656441868
 21
-1164.102275510211
 97
       10
330
1F5
330
1BD
330
1BC
330
1F6
330
1BB
330
1F1
330
1F2
330
1F3
330
1F4
330
1BE
 75
     1
 76
     2
 52
45.0
 41
0.1
 77
     0
 78
     1
 53
45.0
 43
62.7811309658083
 44
-72.3161373035813
 45
-0.1414213562373095
 46
0.0
 79
     0
 98
        1
 10
0.0
 20
0.0
  0
HATCH
  5
2BF
330
A3
100
AcDbEntity
  8
1
  6
Continuous
 62
     2
100
AcDbHatch
 10
0.0
 20
0.0
 30
0.0
210
0.0
220
0.0
230
1.0
  2
CUSTOM6
 70
     0
 71
     1
 91
        1
 92
        1
 93
        8
 72
     1
 10
-991.4840858610662
 20
-1166.152690476181
 11
-994.2990766381799
 21
-1166.152690476181
 72
     1
 10
-994.2990766381799
 20
-1166.152690476181
 11
-994.2990766381799
 21
-1166.937955782304
 72
     1
 10
-994.2990766381799
 20
-1166.937955782304
 11
-993.4879776007053
 21
-1166.937955782304
 72
     1
 10
-993.4879776007053
 20
-1166.937955782304
 11
-993.4879776007053
 21
-1169.206499999992
 72
     1
 10
-993.4879776007053
 20
-1169.206499999992
 11
-992.2951848985389
 21
-1169.206499999992
 72
     1
 10
-992.2951848985389
 20
-1169.206499999992
 11
-992.2951848985389
 21
-1166.937955782304
 72
     1
 10
-992.2951848985389
 20
-1166.937955782304
 11
-991.4840858610662
 21
-1166.937955782304
 72
     1
 10
-991.4840858610662
 20
-1166.937955782304
 11
-991.4840858610662
 21
-1166.152690476181
 97
        8
330
1B7
330
1F7
330
1B6
330
1F8
330
1F9
330
1BA
330
1B9
330
1B8
 75
     1
 76
     2
 52
45.0
 41
0.1
 77
     0
 78
     1
 53
45.0
 43
62.7811309658083
 44
-72.3161373035813
 45
-0.1414213562373095
 46
0.0
 79
     0
 98
        1
 10
0.0
 20
0.0
  0
HATCH
  5
2C0
330
A3
100
AcDbEntity
  8
1
  6
Continuous
 62
     2
100
AcDbHatch
 10
0.0
 20
0.0
 30
0.0
210
0.0
220
0.0
230
1.0
  2
CUSTOM7
 70
     0
 71
     1
 91
        1
 92
        1
 93
        8
 72
     1
 10
-991.4840858610662
 20
-1166.152690476181
 11
-994.2990766381799
 21
-1166.152690476181
 72
     1
 10
-994.2990766381799
 20
-1166.152690476181
 11
-994.2990766381799
 21
-1166.937955782304
 72
     1
 10
-994.2990766381799
 20
-1166.937955782304
 11
-993.4879776007053
 21
-1166.937955782304
 72
     1
 10
-993.4879776007053
 20
-1166.937955782304
 11
-993.4879776007053
 21
-1169.206499999992
 72
     1
 10
-993.4879776007053
 20
-1169.206499999992
 11
-992.2951848985389
 21
-1169.206499999992
 72
     1
 10
-992.2951848985389
 20
-1169.206499999992
 11
-992.2951848985389
 21
-1166.937955782304
 72
     1
 10
-992.2951848985389
 20
-1166.937955782304
 11
-991.4840858610662
 21
-1166.937955782304
 72
     1
 10
-991.4840858610662
 20
-1166.937955782304
 11
-991.4840858610662
 21
-1166.152690476181
 97
        8
330
1B7
330
1F7
330
1B6
330
1F8
330
1F9
330
1BA
330
1B9
330
1B8
 75
     1
 76
     2
 52
45.0
 41
0.1
 77
     0
 78
     1
 53
45.0
 43
62.7811309658083
 44
-72.3161373035813
 45
-0.1414213562373095
 46
0.0
 79
     0
 98
        1
 10
0.0
 20
0.0
  0
HATCH
  5
2C1
330
A3
100
AcDbEntity
  8
1
  6
Continuous
 62
     2
100
AcDbHatch
 10
0.0
 20
0.0
 30
0.0
210
0.0
220
0.0
230
1.0
  2
CUSTOM8
 70
     0
 71
     1
 91
        2
 92
        1
 93
        8
 72
     1
 10
-989.3456584051193
 20
-1169.206499999992
 11
-989.5571384585951
 21
-1168.665539455774
 72
     1
 10
-989.5571384585951
 20
-1168.665539455774
 11
-990.689580035269
 21
-1168.665539455774
 72
     1
 10
-990.689580035269
 20
-1168.665539455774
 11
-990.9010600887448
 21
-1169.206499999992
 72
     1
 10
-990.9010600887448
 20
-1169.206499999992
 11
-992.1415644989977
 21
-1169.206499999992
 72
     1
 10
-992.1415644989977
 20
-1169.206499999992
 11
-990.7436114520585
 21
-1166.152690476181
 72
     1
 10
-990.7436114520585
 20
-1166.152690476181
 11
-989.5031070418056
 21
-1166.152690476181
 72
     1
 10
-989.5031070418056
 20
-1166.152690476181
 11
-988.1051539948654
 21
-1169.206499999992
 72
     1
 10
-988.1051539948654
 20
-1169.206499999992
 11
-989.3456584051193
 21
-1169.206499999992
 97
        8
330
1FB
330
1FC
330
1B3
330
1FD
330
1B2
330
1B5
330
1FA
330
1B4
 92
       16
 93
        3
 72
     1
 10
-990.4235244841238
 20
-1167.984976190467
 11
-990.1233592469316
 21
-1167.217161224481
 72
     1
 10
-990.1233592469316
 20
-1167.217161224481
 11
-989.8231940097414
 21
-1167.984976190467
 72
     1
 10
-989.8231940097414
 20
-1167.984976190467
 11
-990.4235244841238
 21
-1167.984976190467
 97
        3
330
1B1
330
1FF
330
1FE
 75
     1
 76
     2
 52
45.0
 41
0.1
 77
     0
 78
     1
 53
45.0
 43
62.7811309658083
 44
-72.3161373035813
 45
-0.1414213562373095
 46
0.0
 79
     0
 98
        1
 10
0.0
 20
0.0
  0
HATCH
  5
2C2
330
A3
100
AcDbEntity
  8
1
  6
Continuous
 62
     2
100
AcDbHatch
 10
0.0
 20
0.0
 30
0.0
210
0.0
220
0.0
230
1.0
  2
CUSTOM9
 70
     0
 71
     1
 91
        2
 92
        1
 93
        8
 72
     1
 10
-989.3456584051193
 20
-1169.206499999992
 11
-989.5571384585951
 21
-1168.665539455774
 72
     1
 10
-989.5571384585951
 20
-1168.665539455774
 11
-990.689580035269
 21
-1168.665539455774
 72
     1
 10
-990.689580035269
 20
-1168.665539455774
 11
-990.9010600887448
 21
-1169.206499999992
 72
     1
 10
-990.9010600887448
 20
-1169.206499999992
 11
-992.1415644989977
 21
-1169.206499999992
 72
     1
 10
-992.1415644989977
 20
-1169.206499999992
 11
-990.7436114520585
 21
-1166.152690476181
 72
     1
 10
-990.7436114520585
 20
-1166.152690476181
 11
-989.5031070418056
 21
-1166.152690476181
 72
     1
 10
-989.5031070418056
 20
-1166.152690476181
 11
-988.1051539948654
 21
-1169.206499999992
 72
     1
 10
-988.1051539948654
 20
-1169.206499999992
 11
-989.3456584051193
 21
-1169.206499999992
 97
        8
330
1FB
330
1FC
330
1B3
330
1FD
330
1B2
330
1B5
330
1FA
330
1B4
 92
       16
 93
        3
 72
     1
 10
-990.4235244841238
 20
-1167.984976190467
 11
-990.1233592469316
 21
-1167.217161224481
 72
     1
 10
-990.1233592469316
 20
-1167.217161224481
 11
-989.8231940097414
 21
-1167.984976190467
 72
     1
 10
-989.8231940097414
 20
-1167.984976190467
 11
-990.4235244841238
 21
-1167.984976190467
 97
        3
330
1B1
330
1FF
330
1FE
 75
     1
 76
     2
 52
45.0
 41
0.1
 77
     0
 78
     1
 53
45.0
 43
62.7811309658083
 44
-72.3161373035813
 45
-0.1414213562373095
 46
0.0
 79
     0
 98
        1
 10
0.0
 20
0.0
  0
HATCH
  5
2C3
330
A3
100
AcDbEntity
  8
1
  6
Continuous
 62
     2
100
AcDbHatch
 10
0.0
 20
0.0
 30
0.0
210
0.0
220
0.0
230
1.0
  2
CUSTOM10
 70
     0
 71
     1
 91
        1
 92
        1
 93
        4
 72
     1
 10
-987.7147099913334
 20
-1165.847309523817
 11
-988.9552144015863
 21
-1165.847309523817
 72
     1
 10
-988.9552144015863
 20
-1165.847309523817
 11
-988.9552144015863
 21
-1162.793500000006
 72
     1
 10
-988.9552144015863
 20
-1162.793500000006
 11
-987.7147099913334
 21
-1162.793500000006
 72
     1
 10
-987.7147099913334
 20
-1162.793500000006
 11
-987.7147099913334
 21
-1165.847309523817
 97
        4
330
1AE
330
1B0
330
200
330
1AF
 75
     1
 76
     2
 52
45.0
 41
0.1
 77
     0
 78
     1
 53
45.0
 43
62.7811309658083
 44
-72.3161373035813
 45
-0.1414213562373095
 46
0.0
 79
     0
 98
        1
 10
0.0
 20
0.0
  0
HATCH
  5
2C4
330
A3
100
AcDbEntity
  8
1
  6
Continuous
 62
     2
100
AcDbHatch
 10
0.0
 20
0.0
 30
0.0
210
0.0
220
0.0
230
1.0
  2
CUSTOM11
 70
     0
 71
     1
 91
        1
 92
        1
 93
        4
 72
     1
 10
-987.7147099913334
 20
-1165.847309523817
 11
-988.9552144015863
 21
-1165.847309523817
 72
     1
 10
-988.9552144015863
 20
-1165.847309523817
 11
-988.9552144015863
 21
-1162.793500000006
 72
     1
 10
-988.9552144015863
 20
-1162.793500000006
 11
-987.7147099913334
 21
-1162.793500000006
 72
     1
 10
-987.7147099913334
 20
-1162.793500000006
 11
-987.7147099913334
 21
-1165.847309523817
 97
        4
330
1AE
330
1B0
330
200
330
1AF
 75
     1
 76
     2
 52
45.0
 41
0.1
 77
     0
 78
     1
 53
45.0
 43
62.7811309658083
 44
-72.3161373035813
 45
-0.1414213562373095
 46
0.0
 79
     0
 98
        1
 10
0.0
 20
0.0
  0
HATCH
  5
2C5
330
A3
100
AcDbEntity
  8
1
  6
Continuous
 62
     2
100
AcDbHatch
 10
0.0
 20
0.0
 30
0.0
210
0.0
220
0.0
230
1.0
  2
CUSTOM12
 70
     0
 71
     1
 91
        1
 92
        1
 93
       12
 72
     1
 10
-983.4922238256626
 20
-1162.793500000006
 11
-984.7947534564291
 21
-1164.266450530042
 72
     1
 10
-984.7947534564291
 20
-1164.266450530042
 11
-983.3968004094888
 21
-1165.847309523817
 72
     1
 10
-983.3968004094888
 20
-1165.847309523817
 11
-984.7995246272371
 21
-1165.847309523817
 72
     1
 10
-984.7995246272371
 20
-1165.847309523817
 11
-985.4961155653026
 21
-1165.059577738524
 72
     1
 10
-985.4961155653026
 20
-1165.059577738524
 11
-986.1927065033684
 21
-1165.847309523817
 72
     1
 10
-986.1927065033684
 20
-1165.847309523817
 11
-987.5954307211165
 21
-1165.847309523817
 72
     1
 10
-987.5954307211165
 20
-1165.847309523817
 11
-986.1974776741762
 21
-1164.266450530042
 72
     1
 10
-986.1974776741762
 20
-1164.266450530042
 11
-987.5000073049437
 21
-1162.793500000006
 72
     1
 10
-987.5000073049437
 20
-1162.793500000006
 11
-986.0972830871945
 21
-1162.793500000006
 72
     1
 10
-986.0972830871945
 20
-1162.793500000006
 11
-985.4961155653026
 21
-1163.473323321562
 72
     1
 10
-985.4961155653026
 20
-1163.473323321562
 11
-984.8949480434098
 21
-1162.793500000006
 72
     1
 10
-984.8949480434098
 20
-1162.793500000006
 11
-983.4922238256626
 21
-1162.793500000006
 97
       12
330
1A9
330
1A8
330
1A7
330
204
330
205
330
201
330
202
330
1AD
330
1AC
330
1AB
330
1AA
330
203
 75
     1
 76
     2
 52
45.0
 41
0.1
 77
     0
 78
     1
 53
45.0
 43
62.7811309658083
 44
-72.3161373035813
 45
-0.1414213562373095
 46
0.0
 79
     0
 98
        1
 10
0.0
 20
0.0
  0
HATCH
  5
2C6
330
A3
100
AcDbEntity
  8
1
  6
Continuous
 62
     2
100
AcDbHatch
 10
0.0
 20
0.0
 30
0.0
210
0.0
220
0.0
230
1.0
  2
CUSTOM13
 70
     0
 71
     1
 91
        1
 92
        1
 93
       12
 72
     1
 10
-983.4922238256626
 20
-1162.793500000006
 11
-984.7947534564291
 21
-1164.266450530042
 72
     1
 10
-984.7947534564291
 20
-1164.266450530042
 11
-983.3968004094888
 21
-1165.847309523817
 72
     1
 10
-983.3968004094888
 20
-1165.847309523817
 11
-984.7995246272371
 21
-1165.847309523817
 72
     1
 10
-984.7995246272371
 20
-1165.847309523817
 11
-985.4961155653026
 21
-1165.059577738524
 72
     1
 10
-985.4961155653026
 20
-1165.059577738524
 11
-986.1927065033684
 21
-1165.847309523817
 72
     1
 10
-986.1927065033684
 20
-1165.847309523817
 11
-987.5954307211165
 21
-1165.847309523817
 72
     1
 10
-987.5954307211165
 20
-1165.847309523817
 11
-986.1974776741762
 21
-1164.266450530042
 72
     1
 10
-986.1974776741762
 20
-1164.266450530042
 11
-987.5000073049437
 21
-1162.793500000006
 72
     1
 10
-987.5000073049437
 20
-1162.793500000006
 11
-986.0972830871945
 21
-1162.793500000006
 72
     1
 10
-986.0972830871945
 20
-1162.793500000006
 11
-985.4961155653026
 21
-1163.473323321562
 72
     1
 10
-985.4961155653026
 20
-1163.473323321562
 11
-984.8949480434098
 21
-1162.793500000006
 72
     1
 10
-984.8949480434098
 20
-1162.793500000006
 11
-983.4922238256626
 21
-1162.793500000006
 97
       12
330
1A9
330
1A8
330
1A7
330
204
330
205
330
201
330
202
330
1AD
330
1AC
330
1AB
330
1AA
330
203
 75
     1
 76
     2
 52
45.0
 41
0.1
 77
     0
 78
     1
 53
45.0
 43
62.7811309658083
 44
-72.3161373035813
 45
-0.1414213562373095
 46
0.0
 79
     0
 98
        1
 10
0.0
 20
0.0
  0
HATCH
  5
2C7
330
A3
100
AcDbEntity
  8
1
  6
Continuous
 62
     2
100
AcDbHatch
 10
0.0
 20
0.0
 30
0.0
210
0.0
220
0.0
230
1.0
  2
CUSTOM14
 70
     0
 71
     1
 91
        2
 92
        1
 93
        6
 72
     1
 10
-1002.509959239809
 20
-1164.904231282674
 11
-1003.268726827589
 21
-1164.904231282674
 72
     1
 10
-1003.268726827589
 20
-1164.904231282674
 11
-1003.268726827589
 21
-1165.847309523817
 72
     1
 10
-1003.268726827589
 20
-1165.847309523817
 11
-1004.509231237843
 21
-1165.847309523817
 72
     1
 10
-1004.509231237843
 20
-1165.847309523817
 11
-1004.509231237843
 21
-1162.793500000006
 72
     1
 10
-1004.509231237843
 20
-1162.793500000006
 11
-1002.509959239809
 21
-1162.793500000006
 72
     2
 10
-1002.509959239809
 20
-1163.84886564134
 40
1.055365641333992
 50
270.0
 51
450.0
 73
     0
 97
        6
330
1D1
330
1D0
330
1DD
330
1DC
330
1D2
330
263
 92
       16
 93
        4
 72
     2
 10
-1002.951431766047
 20
-1163.809469670118
 40
0.3528638246709761
 50
270.0
 51
450.0
 73
     1
 72
     1
 10
-1002.951431766047
 20
-1163.456605845446
 11
-1003.268726827589
 21
-1163.456605845446
 72
     1
 10
-1003.268726827589
 20
-1163.456605845446
 11
-1003.268726827589
 21
-1164.162333494789
 72
     1
 10
-1003.268726827589
 20
-1164.162333494789
 11
-1002.951431766047
 21
-1164.162333494789
 97
        4
330
277
330
1CE
330
1DE
330
1CF
 75
     1
 76
     2
 52
45.0
 41
0.1
 77
     0
 78
     1
 53
45.0
 43
62.7811309658083
 44
-72.3161373035813
 45
-0.1414213562373095
 46
0.0
 79
     0
 98
        1
 10
0.0
 20
0.0
  0
HATCH
  5
2C8
330
A3
100
AcDbEntity
  8
1
  6
Continuous
 62
     2
100
AcDbHatch
 10
0.0
 20
0.0
 30
0.0
210
0.0
220
0.0
230
1.0
  2
CUSTOM15
 70
     0
 71
     1
 91
        2
 92
        1
 93
        6
 72
     1
 10
-1002.509959239809
 20
-1164.904231282674
 11
-1003.268726827589
 21
-1164.904231282674
 72
     1
 10
-1003.268726827589
 20
-1164.904231282674
 11
-1003.268726827589
 21
-1165.847309523817
 72
     1
 10
-1003.268726827589
 20
-1165.847309523817
 11
-1004.509231237843
 21
-1165.847309523817
 72
     1
 10
-1004.509231237843
 20
-1165.847309523817
 11
-1004.509231237843
 21
-1162.793500000006
 72
     1
 10
-1004.509231237843
 20
-1162.793500000006
 11
-1002.509959239809
 21
-1162.793500000006
 72
     2
 10
-1002.509959239809
 20
-1163.84886564134
 40
1.055365641333992
 50
270.0
 51
450.0
 73
     0
 97
        6
330
1D1
330
1D0
330
1DD
330
1DC
330
1D2
330
263
 92
       16
 93
        4
 72
     2
 10
-1002.951431766047
 20
-1163.809469670118
 40
0.3528638246709761
 50
270.0
 51
450.0
 73
     1
 72
     1
 10
-1002.951431766047
 20
-1163.456605845446
 11
-1003.268726827589
 21
-1163.456605845446
 72
     1
 10
-1003.268726827589
 20
-1163.456605845446
 11
-1003.268726827589
 21
-1164.162333494789
 72
     1
 10
-1003.268726827589
 20
-1164.162333494789
 11
-1002.951431766047
 21
-1164.162333494789
 97
        4
330
277
330
1CE
330
1DE
330
1CF
 75
     1
 76
     2
 52
45.0
 41
0.1
 77
     0
 78
     1
 53
45.0
 43
62.7811309658083
 44
-72.3161373035813
 45
-0.1414213562373095
 46
0.0
 79
     0
 98
        1
 10
0.0
 20
0.0
  0
HATCH
  5
2C9
330
A3
100
AcDbEntity
  8
1
  6
Continuous
 62
     2
100
AcDbHatch
 10
0.0
 20
0.0
 30
0.0
210
0.0
220
0.0
230
1.0
  2
CUSTOM16
 70
     0
 71
     1
 91
        2
 92
        1
 93
        4
 72
     2
 10
-999.9534164914495
 20
-1168.218170248389
 40
2.06547977220824
 50
62.45185182430162
 51
117.5481481756648
 73
     1
 72
     2
 10
-1000.234356383283
 20
-1167.679595238086
 40
1.458034083650777
 50
117.5481481756594
 51
242.4518518243613
 73
     1
 72
     2
 10
-999.9534164914495
 20
-1167.141020227783
 40
2.065479772208617
 50
242.4518518243497
 51
297.5481481756838
 73
     1
 72
     2
 10
-999.6724765996163
 20
-1167.679595238086
 40
1.458034083652521
 50
297.5481481756942
 51
422.4518518242851
 73
     1
 97
        4
330
26F
330
26E
330
270
330
26D
 92
       16
 93
        4
 72
     2
 10
-1000.153156527796
 20
-1167.679595238086
 40
0.7717997786796852
 50
321.8795802028358
 51
398.1204197971642
 73
     1
 72
     2
 10
-999.9534164914495
 20
-1167.522864059966
 40
0.517908573013574
 50
38.12041979721116
 51
141.8795802028432
 73
     1
 72
     2
 10
-999.7536764551035
 20
-1167.679595238086
 40
0.7717997786799534
 50
141.8795802028515
 51
218.1204197971485
 73
     1
 72
     2
 10
-999.9534164914495
 20
-1167.836326416206
 40
0.5179085730142001
 50
218.1204197971568
 51
321.8795802027889
 73
     1
 97
        4
330
28B
330
288
330
289
330
28A
 75
     1
 76
     2
 52
45.0
 41
0.1
 77
     0
 78
     1
 53
45.0
 43
62.7811309658083
 44
-72.3161373035813
 45
-0.1414213562373095
 46
0.0
 79
     0
 98
        1
 10
0.0
 20
0.0
  0
HATCH
  5
2CA
330
A3
100
AcDbEntity
  8
1
  6
Continuous
 62
     2
100
AcDbHatch
 10
0.0
 20
0.0
 30
0.0
210
0.0
220
0.0
230
1.0
  2
CUSTOM17
 70
     0
 71
     1
 91
        2
 92
        1
 93
        4
 72
     2
 10
-999.9534164914495
 20
-1168.218170248389
 40
2.06547977220824
 50
62.45185182430162
 51
117.5481481756648
 73
     1
 72
     2
 10
-1000.234356383283
 20
-1167.679595238086
 40
1.458034083650777
 50
117.5481481756594
 51
242.4518518243613
 73
     1
 72
     2
 10
-999.9534164914495
 20
-1167.141020227783
 40
2.065479772208617
 50
242.4518518243497
 51
297.5481481756838
 73
     1
 72
     2
 10
-999.6724765996163
 20
-1167.679595238086
 40
1.458034083652521
 50
297.5481481756942
 51
422.4518518242851
 73
     1
 97
        4
330
26F
330
26E
330
270
330
26D
 92
       16
 93
        4
 72
     2
 10
-1000.153156527796
 20
-1167.679595238086
 40
0.7717997786796852
 50
321.8795802028358
 51
398.1204197971642
 73
     1
 72
     2
 10
-999.9534164914495
 20
-1167.522864059966
 40
0.517908573013574
 50
38.12041979721116
 51
141.8795802028432
 73
     1
 72
     2
 10
-999.7536764551035
 20
-1167.679595238086
 40
0.7717997786799534
 50
141.8795802028515
 51
218.1204197971485
 73
     1
 72
     2
 10
-999.9534164914495
 20
-1167.836326416206
 40
0.5179085730142001
 50
218.1204197971568
 51
321.8795802027889
 73
     1
 97
        4
330
28B
330
288
330
289
330
28A
 75
     1
 76
     2
 52
45.0
 41
0.1
 77
     0
 78
     1
 53
45.0
 43
62.7811309658083
 44
-72.3161373035813
 45
-0.1414213562373095
 46
0.0
 79
     0
 98
        1
 10
0.0
 20
0.0
  0
HATCH
  5
2CB
330
A3
100
AcDbEntity
  8
1
  6
Continuous
 62
     2
100
AcDbHatch
 10
0.0
 20
0.0
 30
0.0
210
0.0
220
0.0
230
1.0
  2
CUSTOM18
 70
     0
 71
     1
 91
        2
 92
        1
 93
       12
 72
     1
 10
-993.0584212970402
 20
-1163.491513605449
 11
-994.3943491234679
 21
-1163.491513605449
 72
     1
 10
-994.3943491234679
 20
-1163.491513605449
 11
-994.3943491234679
 21
-1163.971397959191
 72
     1
 10
-994.3943491234679
 20
-1163.971397959191
 11
-993.0584212970402
 21
-1163.971397959191
 72
     1
 10
-993.0584212970402
 20
-1163.971397959191
 11
-993.0584212970402
 21
-1164.669411564633
 72
     1
 10
-993.0584212970402
 20
-1164.669411564633
 11
-994.3943491234679
 21
-1164.669411564633
 72
     1
 10
-994.3943491234679
 20
-1164.669411564633
 11
-994.3943491234679
 21
-1165.149295918375
 72
     1
 10
-994.3943491234679
 20
-1165.149295918375
 11
-993.0584212970402
 21
-1165.149295918375
 72
     1
 10
-993.0584212970402
 20
-1165.149295918375
 11
-993.0584212970402
 21
-1165.847309523817
 72
     1
 10
-993.0584212970402
 20
-1165.847309523817
 11
-996.2087410208212
 21
-1165.847309523817
 72
     2
 10
-996.2087410208212
 20
-1164.320404761912
 40
1.526904761906053
 50
90.0
 51
270.0
 73
     0
 72
     1
 10
-996.2087410208212
 20
-1162.793500000006
 11
-993.0584212970402
 21
-1162.793500000006
 72
     1
 10
-993.0584212970402
 20
-1162.793500000006
 11
-993.0584212970402
 21
-1163.491513605449
 97
       12
330
1E5
330
278
330
1E6
330
1E7
330
1E8
330
1E9
330
1C6
330
1C5
330
1C4
330
1C3
330
1EA
330
1E4
 92
       16
 93
        4
 72
     2
 10
-995.992469010656
 20
-1164.163673583792
 40
0.5179085730137529
 50
38.12041979719563
 51
141.8795802028121
 73
     1
 72
     2
 10
-995.7927289743097
 20
-1164.320404761912
 40
0.7717997786797746
 50
141.879580202841
 51
218.120419797159
 73
     1
 72
     2
 10
-995.992469010656
 20
-1164.477135940033
 40
0.517908573013281
 50
218.1204197971087
 51
321.8795802028835
 73
     1
 72
     2
 10
-996.1922090470022
 20
-1164.320404761912
 40
0.7717997786795957
 50
321.8795802028306
 51
398.1204197971695
 73
     1
 97
        4
330
272
330
271
330
26C
330
26B
 75
     1
 76
     2
 52
45.0
 41
0.1
 77
     0
 78
     1
 53
45.0
 43
62.7811309658083
 44
-72.3161373035813
 45
-0.1414213562373095
 46
0.0
 79
     0
 98
        1
 10
0.0
 20
0.0
  0
HATCH
  5
2CC
330
A3
100
AcDbEntity
  8
1
  6
Continuous
 62
     2
100
AcDbHatch
 10
0.0
 20
0.0
 30
0.0
210
0.0
220
0.0
230
1.0
  2
CUSTOM19
 70
     0
 71
     1
 91
        2
 92
        1
 93
       12
 72
     1
 10
-993.0584212970402
 20
-1163.491513605449
 11
-994.3943491234679
 21
-1163.491513605449
 72
     1
 10
-994.3943491234679
 20
-1163.491513605449
 11
-994.3943491234679
 21
-1163.971397959191
 72
     1
 10
-994.3943491234679
 20
-1163.971397959191
 11
-993.0584212970402
 21
-1163.971397959191
 72
     1
 10
-993.0584212970402
 20
-1163.971397959191
 11
-993.0584212970402
 21
-1164.669411564633
 72
     1
 10
-993.0584212970402
 20
-1164.669411564633
 11
-994.3943491234679
 21
-1164.669411564633
 72
     1
 10
-994.3943491234679
 20
-1164.669411564633
 11
-994.3943491234679
 21
-1165.149295918375
 72
     1
 10
-994.3943491234679
 20
-1165.149295918375
 11
-993.0584212970402
 21
-1165.149295918375
 72
     1
 10
-993.0584212970402
 20
-1165.149295918375
 11
-993.0584212970402
 21
-1165.847309523817
 72
     1
 10
-993.0584212970402
 20
-1165.847309523817
 11
-996.2087410208212
 21
-1165.847309523817
 72
     2
 10
-996.2087410208212
 20
-1164.320404761912
 40
1.526904761906053
 50
90.0
 51
270.0
 73
     0
 72
     1
 10
-996.2087410208212
 20
-1162.793500000006
 11
-993.0584212970402
 21
-1162.793500000006
 72
     1
 10
-993.0584212970402
 20
-1162.793500000006
 11
-993.0584212970402
 21
-1163.491513605449
 97
       12
330
1E5
330
278
330
1E6
330
1E7
330
1E8
330
1E9
330
1C6
330
1C5
330
1C4
330
1C3
330
1EA
330
1E4
 92
       16
 93
        4
 72
     2
 10
-995.992469010656
 20
-1164.163673583792
 40
0.5179085730137529
 50
38.12041979719563
 51
141.8795802028121
 73
     1
 72
     2
 10
-995.7927289743097
 20
-1164.320404761912
 40
0.7717997786797746
 50
141.879580202841
 51
218.120419797159
 73
     1
 72
     2
 10
-995.992469010656
 20
-1164.477135940033
 40
0.517908573013281
 50
218.1204197971087
 51
321.8795802028835
 73
     1
 72
     2
 10
-996.1922090470022
 20
-1164.320404761912
 40
0.7717997786795957
 50
321.8795802028306
 51
398.1204197971695
 73
     1
 97
        4
330
272
330
271
330
26C
330
26B
 75
     1
 76
     2
 52
45.0
 41
0.1
 77
     0
 78
     1
 53
45.0
 43
62.7811309658083
 44
-72.3161373035813
 45
-0.1414213562373095
 46
0.0
 79
     0
 98
        1
 10
0.0
 20
0.0
  0
HATCH
  5
2CD
330
A3
100
AcDbEntity
  8
1
  6
Continuous
 62
     2
100
AcDbHatch
 10
0.0
 20
0.0
 30
0.0
210
0.0
220
0.0
230
1.0
  2
CUSTOM20
 70
     0
 71
     1
 91
        4
 92
        1
 93
        8
 72
     1
 10
-1004.98634831871
 20
-1163.217744615408
 11
-1004.98634831871
 21
-1168.782255384609
 72
     2
 10
-1005.410592934094
 20
-1168.782255384609
 40
0.4242446153830315
 50
0.0
 51
90.0
 73
     0
 72
     1
 10
-1005.410592934094
 20
-1169.206499999992
 11
-1010.883905024811
 21
-1169.206499999992
 72
     2
 10
-1010.883905024811
 20
-1168.782255384609
 40
0.4242446153820083
 50
90.0
 51
180.0
 73
     0
 72
     1
 10
-1011.308149640193
 20
-1168.782255384609
 11
-1011.308149640193
 21
-1163.217744615408
 72
     2
 10
-1010.883905024811
 20
-1163.217744615408
 40
0.424244615383941
 50
180.0
 51
270.0
 73
     0
 72
     1
 10
-1010.883905024811
 20
-1162.793500000024
 11
-1005.410592934094
 21
-1162.793500000024
 72
     2
 10
-1005.410592934094
 20
-1163.217744615408
 40
0.424244615383941
 50
270.0
 51
360.0
 73
     0
 97
        8
330
1D9
330
268
330
1DA
330
273
330
1D7
330
26A
330
1D8
330
269
 92
       16
 93
       12
 72
     2
 10
-1010.290010348064
 20
-1168.178227521358
 40
0.3157169230760246
 50
180.0
 51
270.0
 73
     1
 72
     1
 10
-1010.290010348064
 20
-1168.493944444435
 11
-1008.814177087055
 21
-1168.493944444435
 72
     2
 10
-1008.814177087055
 20
-1168.178227521358
 40
0.3157169230771615
 50
270.0
 51
360.0
 73
     1
 72
     1
 10
-1008.498460163978
 20
-1168.178227521358
 11
-1008.498460163978
 21
-1166.647456589827
 72
     2
 10
-1008.814177087055
 20
-1166.647456589827
 40
0.3157169230769341
 50
0.0
 51
64.80558935139767
 73
     1
 72
     2
 10
-1008.29159263948
 20
-1165.536626843764
 40
0.9118975235577705
 50
115.1944106484861
 51
244.8055893515139
 73
     0
 72
     2
 10
-1008.814177087055
 20
-1164.425797097702
 40
0.3157169230758993
 50
295.1944106486726
 51
360.0
 73
     1
 72
     1
 10
-1008.498460163978
 20
-1164.425797097702
 11
-1008.498460163978
 21
-1163.821772478641
 72
     2
 10
-1008.814177087055
 20
-1163.821772478641
 40
0.3157169230769341
 50
0.0
 51
90.0
 73
     1
 72
     1
 10
-1008.814177087055
 20
-1163.506055555565
 11
-1010.290010348064
 21
-1163.506055555565
 72
     2
 10
-1010.290010348064
 20
-1163.821772478641
 40
0.3157169230760246
 50
90.0
 51
180.0
 73
     1
 72
     1
 10
-1010.60572727114
 20
-1163.821772478641
 11
-1010.60572727114
 21
-1168.178227521358
 97
       12
330
264
330
1DB
330
267
330
1D6
330
274
330
275
330
266
330
1D5
330
265
330
1D4
330
276
330
1D3
 92
       16
 93
        8
 72
     2
 10
-1007.714461661532
 20
-1166.645768443732
 40
0.3157169230765265
 50
115.374008678518
 51
180.0
 73
     1
 72
     1
 10
-1008.030178584609
 20
-1166.645768443732
 11
-1008.030178584609
 21
-1167.227619850427
 72
     2
 10
-1007.714461661532
 20
-1167.227619850427
 40
0.3157169230769341
 50
180.0
 51
269.8110329573356
 73
     1
 72
     2
 10
-1007.708845526222
 20
-1165.524784902858
 40
2.018561131933154
 50
269.8110329575681
 51
450.1889670424319
 73
     1
 72
     2
 10
-1007.714461661532
 20
-1163.821949955289
 40
0.3157169230760164
 50
90.1889670426646
 51
180.0
 73
     1
 72
     1
 10
-1008.030178584609
 20
-1163.821949955289
 11
-1008.030178584609
 21
-1164.427485243796
 72
     2
 10
-1007.714461661532
 20
-1164.427485243796
 40
0.3157169230769341
 50
180.0
 51
244.625991321482
 73
     1
 72
     2
 10
-1008.24050435962
 20
-1165.536626843764
 40
0.9118481501442193
 50
295.3740086781322
 51
424.6259913218678
 73
     0
 97
        8
330
280
330
1A0
330
27D
330
27E
330
25C
330
19F
330
27F
330
25B
 92
       16
 93
        1
 72
     2
 10
-1008.264319374293
 20
-1165.536626843764
 40
0.470978932777939
 50
0.0
 51
360.0
 73
     1
 97
        1
330
28E
 75
     1
 76
     2
 52
45.0
 41
0.1
 77
     0
 78
     1
 53
45.0
 43
62.7811309658083
 44
-72.3161373035813
 45
-0.1414213562373095
 46
0.0
 79
     0
 98
        1
 10
0.0
 20
0.0
  0
HATCH
  5
2CE
330
A3
100
AcDbEntity
  8
1
  6
Continuous
 62
     2
100
AcDbHatch
 10
0.0
 20
0.0
 30
0.0
210
0.0
220
0.0
230
1.0
  2
CUSTOM21
 70
     0
 71
     1
 91
        4
 92
        1
 93
        8
 72
     1
 10
-1004.98634831871
 20
-1163.217744615408
 11
-1004.98634831871
 21
-1168.782255384609
 72
     2
 10
-1005.410592934094
 20
-1168.782255384609
 40
0.4242446153830315
 50
0.0
 51
90.0
 73
     0
 72
     1
 10
-1005.410592934094
 20
-1169.206499999992
 11
-1010.883905024811
 21
-1169.206499999992
 72
     2
 10
-1010.883905024811
 20
-1168.782255384609
 40
0.4242446153820083
 50
90.0
 51
180.0
 73
     0
 72
     1
 10
-1011.308149640193
 20
-1168.782255384609
 11
-1011.308149640193
 21
-1163.217744615408
 72
     2
 10
-1010.883905024811
 20
-1163.217744615408
 40
0.424244615383941
 50
180.0
 51
270.0
 73
     0
 72
     1
 10
-1010.883905024811
 20
-1162.793500000024
 11
-1005.410592934094
 21
-1162.793500000024
 72
     2
 10
-1005.410592934094
 20
-1163.217744615408
 40
0.424244615383941
 50
270.0
 51
360.0
 73
     0
 97
        8
330
1D9
330
268
330
1DA
330
273
330
1D7
330
26A
330
1D8
330
269
 92
       16
 93
       12
 72
     2
 10
-1010.290010348064
 20
-1168.178227521358
 40
0.3157169230760246
 50
180.0
 51
270.0
 73
     1
 72
     1
 10
-1010.290010348064
 20
-1168.493944444435
 11
-1008.814177087055
 21
-1168.493944444435
 72
     2
 10
-1008.814177087055
 20
-1168.178227521358
 40
0.3157169230771615
 50
270.0
 51
360.0
 73
     1
 72
     1
 10
-1008.498460163978
 20
-1168.178227521358
 11
-1008.498460163978
 21
-1166.647456589827
 72
     2
 10
-1008.814177087055
 20
-1166.647456589827
 40
0.3157169230769341
 50
0.0
 51
64.80558935139767
 73
     1
 72
     2
 10
-1008.29159263948
 20
-1165.536626843764
 40
0.9118975235577705
 50
115.1944106484861
 51
244.8055893515139
 73
     0
 72
     2
 10
-1008.814177087055
 20
-1164.425797097702
 40
0.3157169230758993
 50
295.1944106486726
 51
360.0
 73
     1
 72
     1
 10
-1008.498460163978
 20
-1164.425797097702
 11
-1008.498460163978
 21
-1163.821772478641
 72
     2
 10
-1008.814177087055
 20
-1163.821772478641
 40
0.3157169230769341
 50
0.0
 51
90.0
 73
     1
 72
     1
 10
-1008.814177087055
 20
-1163.506055555565
 11
-1010.290010348064
 21
-1163.506055555565
 72
     2
 10
-1010.290010348064
 20
-1163.821772478641
 40
0.3157169230760246
 50
90.0
 51
180.0
 73
     1
 72
     1
 10
-1010.60572727114
 20
-1163.821772478641
 11
-1010.60572727114
 21
-1168.178227521358
 97
       12
330
264
330
1DB
330
267
330
1D6
330
274
330
275
330
266
330
1D5
330
265
330
1D4
330
276
330
1D3
 92
       16
 93
        8
 72
     2
 10
-1007.714461661532
 20
-1166.645768443732
 40
0.3157169230765265
 50
115.374008678518
 51
180.0
 73
     1
 72
     1
 10
-1008.030178584609
 20
-1166.645768443732
 11
-1008.030178584609
 21
-1167.227619850427
 72
     2
 10
-1007.714461661532
 20
-1167.227619850427
 40
0.3157169230769341
 50
180.0
 51
269.8110329573356
 73
     1
 72
     2
 10
-1007.708845526222
 20
-1165.524784902858
 40
2.018561131933154
 50
269.8110329575681
 51
450.1889670424319
 73
     1
 72
     2
 10
-1007.714461661532
 20
-1163.821949955289
 40
0.3157169230760164
 50
90.1889670426646
 51
180.0
 73
     1
 72
     1
 10
-1008.030178584609
 20
-1163.821949955289
 11
-1008.030178584609
 21
-1164.427485243796
 72
     2
 10
-1007.714461661532
 20
-1164.427485243796
 40
0.3157169230769341
 50
180.0
 51
244.625991321482
 73
     1
 72
     2
 10
-1008.24050435962
 20
-1165.536626843764
 40
0.9118481501442193
 50
295.3740086781322
 51
424.6259913218678
 73
     0
 97
        8
330
280
330
1A0
330
27D
330
27E
330
25C
330
19F
330
27F
330
25B
 92
       16
 93
        1
 72
     2
 10
-1008.264319374293
 20
-1165.536626843764
 40
0.470978932777939
 50
0.0
 51
360.0
 73
     1
 97
        1
330
28E
 75
     1
 76
     2
 52
45.0
 41
0.1
 77
     0
 78
     1
 53
45.0
 43
62.7811309658083
 44
-72.3161373035813
 45
-0.1414213562373095
 46
0.0
 79
     0
 98
        1
 10
0.0
 20
0.0
  0
HATCH
  5
2CF
330
A3
100
AcDbEntity
  8
1
  6
Continuous
 62
     2
100
AcDbHatch
 10
0.0
 20
0.0
 30
0.0
210
0.0
220
0.0
230
1.0
  2
CUSTOM22
 70
     0
 71
     1
 91
        1
 92
        1
 93
       18
 72
     1
 10
-983.3968004094888
 20
-1166.937955782304
 11
-984.2078994469623
 21
-1166.937955782304
 72
     1
 10
-984.2078994469623
 20
-1166.937955782304
 11
-984.2078994469623
 21
-1169.206499999992
 72
     1
 10
-984.2078994469623
 20
-1169.206499999992
 11
-985.40069214913
 21
-1169.206499999992
 72
     1
 10
-985.40069214913
 20
-1169.206499999992
 11
-985.40069214913
 21
-1166.937955782304
 72
     1
 10
-985.40069214913
 20
-1166.937955782304
 11
-986.504331448698
 21
-1166.937955782304
 72
     2
 10
-986.504331448698
 20
-1167.89247878913
 40
0.9545230068260935
 50
90.0
 51
109.3371432194401
 73
     1
 72
     2
 10
-986.6510014468017
 20
-1167.474523808747
 40
0.5115800601937612
 50
109.3371432195076
 51
151.4785267424227
 73
     1
 72
     2
 10
-986.2736441887203
 20
-1167.679595238086
 40
0.9410597353349766
 50
151.4785267423711
 51
208.5214732576775
 73
     1
 72
     2
 10
-986.6510014468017
 20
-1167.884666667425
 40
0.5115800601958815
 50
208.5214732576444
 51
246.6277221118294
 73
     1
 72
     2
 10
-986.4945614140986
 20
-1167.522674648715
 40
0.9059297849850417
 50
246.6277221118078
 51
288.4480761180692
 73
     1
 72
     2
 10
-986.9127291477606
 20
-1166.269128872678
 40
2.227384008973474
 50
288.4480761181272
 51
301.9309089499398
 73
     1
 72
     1
 10
-985.7346741057366
 20
-1168.159479591828
 11
-985.7346741057366
 21
-1169.031996598631
 72
     2
 10
-987.0706020228533
 20
-1164.36691429283
 40
4.852596863499167
 50
74.02000874166028
 51
84.8418552303637
 73
     0
 72
     2
 10
-986.7817459281175
 20
-1167.566804876052
 40
1.639695123940421
 50
84.84185523032258
 51
164.9381082228985
 73
     0
 72
     2
 10
-987.2008737715792
 20
-1167.679595238086
 40
1.205656168392903
 50
164.9381082228682
 51
195.0618917770901
 73
     0
 72
     2
 10
-986.7817459281175
 20
-1167.792385600121
 40
1.639695123939873
 50
195.0618917771015
 51
270.0
 73
     0
 72
     1
 10
-986.7817459281175
 20
-1166.152690476181
 11
-983.3968004094888
 21
-1166.152690476181
 72
     1
 10
-983.3968004094888
 20
-1166.152690476181
 11
-983.3968004094888
 21
-1166.937955782304
 97
       18
330
1A2
330
279
330
27A
330
262
330
261
330
206
330
260
330
25F
330
27B
330
25E
330
27C
330
25D
330
207
330
1A1
330
1A6
330
1A5
330
1A4
330
1A3
 75
     1
 76
     2
 52
45.0
 41
0.1
 77
     0
 78
     1
 53
45.0
 43
62.7811309658083
 44
-72.3161373035813
 45
-0.1414213562373095
 46
0.0
 79
     0
 98
        1
 10
0.0
 20
0.0
  0
HATCH
  5
2D0
330
A3
100
AcDbEntity
  8
1
  6
Continuous
 62
     2
100
AcDbHatch
 10
0.0
 20
0.0
 30
0.0
210
0.0
220
0.0
230
1.0
  2
CUSTOM23
 70
     0
 71
     1
 91
        1
 92
        1
 93
       18
 72
     1
 10
-983.3968004094888
 20
-1166.937955782304
 11
-984.2078994469623
 21
-1166.937955782304
 72
     1
 10
-984.2078994469623
 20
-1166.937955782304
 11
-984.2078994469623
 21
-1169.206499999992
 72
     1
 10
-984.2078994469623
 20
-1169.206499999992
 11
-985.40069214913
 21
-1169.206499999992
 72
     1
 10
-985.40069214913
 20
-1169.206499999992
 11
-985.40069214913
 21
-1166.937955782304
 72
     1
 10
-985.40069214913
 20
-1166.937955782304
 11
-986.504331448698
 21
-1166.937955782304
 72
     2
 10
-986.504331448698
 20
-1167.89247878913
 40
0.9545230068260935
 50
90.0
 51
109.3371432194401
 73
     1
 72
     2
 10
-986.6510014468017
 20
-1167.474523808747
 40
0.5115800601937612
 50
109.3371432195076
 51
151.4785267424227
 73
     1
 72
     2
 10
-986.2736441887203
 20
-1167.679595238086
 40
0.9410597353349766
 50
151.4785267423711
 51
208.5214732576775
 73
     1
 72
     2
 10
-986.6510014468017
 20
-1167.884666667425
 40
0.5115800601958815
 50
208.5214732576444
 51
246.6277221118294
 73
     1
 72
     2
 10
-986.4945614140986
 20
-1167.522674648715
 40
0.9059297849850417
 50
246.6277221118078
 51
288.4480761180692
 73
     1
 72
     2
 10
-986.9127291477606
 20
-1166.269128872678
 40
2.227384008973474
 50
288.4480761181272
 51
301.9309089499398
 73
     1
 72
     1
 10
-985.7346741057366
 20
-1168.159479591828
 11
-985.7346741057366
 21
-1169.031996598631
 72
     2
 10
-987.0706020228533
 20
-1164.36691429283
 40
4.852596863499167
 50
74.02000874166028
 51
84.8418552303637
 73
     0
 72
     2
 10
-986.7817459281175
 20
-1167.566804876052
 40
1.639695123940421
 50
84.84185523032258
 51
164.9381082228985
 73
     0
 72
     2
 10
-987.2008737715792
 20
-1167.679595238086
 40
1.205656168392903
 50
164.9381082228682
 51
195.0618917770901
 73
     0
 72
     2
 10
-986.7817459281175
 20
-1167.792385600121
 40
1.639695123939873
 50
195.0618917771015
 51
270.0
 73
     0
 72
     1
 10
-986.7817459281175
 20
-1166.152690476181
 11
-983.3968004094888
 21
-1166.152690476181
 72
     1
 10
-983.3968004094888
 20
-1166.152690476181
 11
-983.3968004094888
 21
-1166.937955782304
 97
       18
330
1A2
330
279
330
27A
330
262
330
261
330
206
330
260
330
25F
330
27B
330
25E
330
27C
330
25D
330
207
330
1A1
330
1A6
330
1A5
330
1A4
330
1A3
 75
     1
 76
     2
 52
45.0
 41
0.1
 77
     0
 78
     1
 53
45.0
 43
62.7811309658083
 44
-72.3161373035813
 45
-0.1414213562373095
 46
0.0
 79
     0
 98
        1
 10
0.0
 20
0.0
  0
HATCH
  5
2D1
330
A3
100
AcDbEntity
  8
1
  6
Continuous
 62
     2
100
AcDbHatch
 10
0.0
 20
0.0
 30
0.0
210
0.0
220
0.0
230
1.0
  2
CUSTOM24
 70
     0
 71
     1
 91
        1
 92
        1
 93
       14
 72
     2
 10
-1002.88444740737
 20
-1167.792385600121
 40
1.639695123940203
 50
84.84185523036938
 51
164.9381082228985
 73
     1
 72
     2
 10
-1003.303575250833
 20
-1167.679595238086
 40
1.205656168391586
 50
164.938108222893
 51
195.061891777107
 73
     1
 72
     2
 10
-1002.88444740737
 20
-1167.566804876052
 40
1.639695123940184
 50
195.0618917770708
 51
275.1581447696335
 73
     1
 72
     2
 10
-1003.173303502106
 20
-1164.36691429283
 40
4.852596863497932
 50
275.1581447696242
 51
285.9799912583553
 73
     1
 72
     1
 10
-1001.837375584988
 20
-1169.031996598631
 11
-1001.837375584988
 21
-1168.159479591828
 72
     2
 10
-1003.015430627014
 20
-1166.269128872678
 40
2.227384008972719
 50
58.06909105001552
 51
71.55192388185705
 73
     0
 72
     2
 10
-1002.597262893353
 20
-1167.522674648715
 40
0.9059297849846808
 50
71.55192388183075
 51
113.3722778881394
 73
     0
 72
     2
 10
-1002.753702926055
 20
-1167.884666667425
 40
0.5115800601948827
 50
113.372277888194
 51
151.4785267422948
 73
     0
 72
     2
 10
-1002.376345667974
 20
-1167.679595238086
 40
0.941059735333578
 50
151.4785267422762
 51
208.5214732576752
 73
     0
 72
     2
 10
-1002.753702926055
 20
-1167.474523808747
 40
0.5115800601943638
 50
208.5214732576381
 51
246.6277221117656
 73
     0
 72
     2
 10
-1002.597262893353
 20
-1167.836515827458
 40
0.9059297849858621
 50
246.6277221118606
 51
288.4480761181465
 73
     0
 72
     2
 10
-1003.015430627014
 20
-1169.090061603495
 40
2.227384008974247
 50
288.4480761181337
 51
301.9309089499814
 73
     0
 72
     1
 10
-1001.837375584988
 20
-1167.199710884345
 11
-1001.837375584988
 21
-1166.327193877542
 72
     2
 10
-1003.173303502106
 20
-1170.992276183342
 40
4.852596863497347
 50
74.0200087416418
 51
84.84185523037584
 73
     1
 97
       14
330
281
330
282
330
283
330
284
330
208
330
25A
330
259
330
258
330
285
330
286
330
257
330
287
330
209
330
256
 75
     1
 76
     2
 52
45.0
 41
0.1
 77
     0
 78
     1
 53
45.0
 43
62.7811309658083
 44
-72.3161373035813
 45
-0.1414213562373095
 46
0.0
 79
     0
 98
        1
 10
0.0
 20
0.0
  0
HATCH
  5
2D2
330
A3
100
AcDbEntity
  8
1
  6
Continuous
 62
     2
100
AcDbHatch
 10
0.0
 20
0.0
 30
0.0
210
0.0
220
0.0
230
1.0
  2
CUSTOM25
 70
     0
 71
     1
 91
        1
 92
        1
 93
       14
 72
     2
 10
-1002.88444740737
 20
-1167.792385600121
 40
1.639695123940203
 50
84.84185523036938
 51
164.9381082228985
 73
     1
 72
     2
 10
-1003.303575250833
 20
-1167.679595238086
 40
1.205656168391586
 50
164.938108222893
 51
195.061891777107
 73
     1
 72
     2
 10
-1002.88444740737
 20
-1167.566804876052
 40
1.639695123940184
 50
195.0618917770708
 51
275.1581447696335
 73
     1
 72
     2
 10
-1003.173303502106
 20
-1164.36691429283
 40
4.852596863497932
 50
275.1581447696242
 51
285.9799912583553
 73
     1
 72
     1
 10
-1001.837375584988
 20
-1169.031996598631
 11
-1001.837375584988
 21
-1168.159479591828
 72
     2
 10
-1003.015430627014
 20
-1166.269128872678
 40
2.227384008972719
 50
58.06909105001552
 51
71.55192388185705
 73
     0
 72
     2
 10
-1002.597262893353
 20
-1167.522674648715
 40
0.9059297849846808
 50
71.55192388183075
 51
113.3722778881394
 73
     0
 72
     2
 10
-1002.753702926055
 20
-1167.884666667425
 40
0.5115800601948827
 50
113.372277888194
 51
151.4785267422948
 73
     0
 72
     2
 10
-1002.376345667974
 20
-1167.679595238086
 40
0.941059735333578
 50
151.4785267422762
 51
208.5214732576752
 73
     0
 72
     2
 10
-1002.753702926055
 20
-1167.474523808747
 40
0.5115800601943638
 50
208.5214732576381
 51
246.6277221117656
 73
     0
 72
     2
 10
-1002.597262893353
 20
-1167.836515827458
 40
0.9059297849858621
 50
246.6277221118606
 51
288.4480761181465
 73
     0
 72
     2
 10
-1003.015430627014
 20
-1169.090061603495
 40
2.227384008974247
 50
288.4480761181337
 51
301.9309089499814
 73
     0
 72
     1
 10
-1001.837375584988
 20
-1167.199710884345
 11
-1001.837375584988
 21
-1166.327193877542
 72
     2
 10
-1003.173303502106
 20
-1170.992276183342
 40
4.852596863497347
 50
74.0200087416418
 51
84.84185523037584
 73
     1
 97
       14
330
281
330
282
330
283
330
284
330
208
330
25A
330
259
330
258
330
285
330
286
330
257
330
287
330
209
330
256
 75
     1
 76
     2
 52
45.0
 41
0.1
 77
     0
 78
     1
 53
45.0
 43
62.7811309658083
 44
-72.3161373035813
 45
-0.1414213562373095
 46
0.0
 79
     0
 98
        1
 10
0.0
 20
0.0
  0
ENDBLK
  5
A5
330
A3
100
AcDbEntity
  8
0
100
AcDbBlockEnd
  0
BLOCK
  5
A9
330
A6
100
AcDbEntity
  8
0
100
AcDbBlockBegin
  2
A3I_CS
 70
     0
 10
-886.0000000000059
 20
-1181.500000000008
 30
0.0
  3
A3I_CS
  1

  0
INSERT
  5
A7
330
A6
100
AcDbEntity
  8
1
100
AcDbBlockReference
  2
_punkt
 10
-886.000000000006
 20
-1176.500000000008
 30
0.0
  0
INSERT
  5
A8
330
A6
100
AcDbEntity
  8
1
100
AcDbBlockReference
  2
_rahmen
 10
-886.0000000000059
 20
-1181.500000000008
 30
0.0
  0
ENDBLK
  5
AA
330
A6
100
AcDbEntity
  8
0
100
AcDbBlockEnd
  0
BLOCK
  5
B3
330
AB
100
AcDbEntity
  8
0
100
AcDbBlockBegin
  2
1
 70
     0
 10
0.0
 20
0.0
 30
0.0
  3
1
  1

  0
INSERT
  5
AC
330
AB
100
AcDbEntity
  8
0
100
AcDbBlockReference
  2
Allg1
 10
-958.0000000000089
 20
-1085.000000000015
 30
0.0
  0
INSERT
  5
AD
330
AB
100
AcDbEntity
  8
0
100
AcDbBlockReference
  2
Drfsicht1
 10
-1133.0
 20
-1045.97064018251
 30
0.0
  0
INSERT
  5
AE
330
AB
100
AcDbEntity
  8
0
100
AcDbBlockReference
  2
Rckans1
 10
-972.0
 20
-958.00000000001
 30
0.0
  0
INSERT
  5
AF
330
AB
100
AcDbEntity
  8
0
100
AcDbBlockReference
  2
SA_Links1
 10
-1045.99999999998
 20
-958.00000000001
 30
0.0
  0
INSERT
  5
B0
330
AB
100
AcDbEntity
  8
0
100
AcDbBlockReference
  2
SA_Rechts1
 10
-1210.000000000015
 20
-958.00000000001
 30
0.0
  0
INSERT
  5
B1
330
AB
100
AcDbEntity
  8
0
100
AcDbBlockReference
  2
Vordans1
 10
-1133.000000000002
 20
-958.0000000000099
 30
0.0
  0
INSERT
  5
B2
330
AB
100
AcDbEntity
  8
0
100
AcDbBlockReference
  2
A3I_CS
 10
-886.0000000000059
 20
-1181.500000000008
 30
0.0
  0
ENDBLK
  5
B4
330
AB
100
AcDbEntity
  8
0
100
AcDbBlockEnd
  0
BLOCK
  5
13B
330
134
100
AcDbEntity
  8
0
100
AcDbBlockBegin
  2
*D17
 70
     1
 10
0.0
 20
0.0
 30
0.0
  3
*D17
  1

  0
LINE
  5
135
330
134
100
AcDbEntity
  8
1
  6
Continuous
 62
     2
100
AcDbLine
 10
-1058.999999999965
 20
-1006.64403291917
 30
0.0
 11
-1032.999999999965
 21
-1006.64403291917
 31
0.0
  0
LINE
  5
136
330
134
100
AcDbEntity
  8
1
  6
Continuous
 62
     2
100
AcDbLine
 10
-1058.999999999965
 20
-995.9706401825151
 30
0.0
 11
-1058.999999999965
 21
-1008.14403291917
 31
0.0
  0
LINE
  5
137
330
134
100
AcDbEntity
  8
1
  6
Continuous
 62
     2
100
AcDbLine
 10
-1032.999999999965
 20
-995.9706401825151
 30
0.0
 11
-1032.999999999965
 21
-1008.14403291917
 31
0.0
  0
SOLID
  5
138
330
134
100
AcDbEntity
  8
1
 62
     2
100
AcDbTrace
 10
-1055.499999999965
 20
-1006.183249177614
 30
0.0
 11
-1055.499999999965
 21
-1007.104816660726
 31
0.0
 12
-1058.999999999965
 22
-1006.64403291917
 32
0.0
 13
-1058.999999999965
 23
-1006.64403291917
 33
0.0
  0
SOLID
  5
139
330
134
100
AcDbEntity
  8
1
 62
     2
100
AcDbTrace
 10
-1036.499999999965
 20
-1007.104816660726
 30
0.0
 11
-1036.499999999965
 21
-1006.183249177614
 31
0.0
 12
-1032.999999999965
 22
-1006.64403291917
 32
0.0
 13
-1032.999999999965
 23
-1006.64403291917
 33
0.0
  0
MTEXT
  5
13A
330
134
100
AcDbEntity
  8
1
 62
     3
100
AcDbMText
 10
-1048.62499999998
 20
-1005.14403291917
 30
0.0
 40
3.5
 41
0.0
 71
     7
 72
     1
  1
26
  7
CONVERTER_11
 11
0.9999999999970619
 21
2.424068405545306E-6
 31
0.0
 73
     1
 44
0.60024009603842
  0
ENDBLK
  5
13C
330
134
100
AcDbEntity
  8
0
100
AcDbBlockEnd
  0
BLOCK
  5
177
330
170
100
AcDbEntity
  8
0
100
AcDbBlockBegin
  2
*D18
 70
     1
 10
0.0
 20
0.0
 30
0.0
  3
*D18
  1

  0
LINE
  5
171
330
170
100
AcDbEntity
  8
1
  6
Continuous
 62
     2
100
AcDbLine
 10
-1084.436580970331
 20
-919.9706401825151
 30
0.0
 11
-1084.436580970331
 21
-995.9706401825151
 31
0.0
  0
LINE
  5
172
330
170
100
AcDbEntity
  8
1
  6
Continuous
 62
     2
100
AcDbLine
 10
-1133.000000000001
 20
-919.9706401825151
 30
0.0
 11
-1082.936580970331
 21
-919.9706401825151
 31
0.0
  0
LINE
  5
173
330
170
100
AcDbEntity
  8
1
  6
Continuous
 62
     2
100
AcDbLine
 10
-1098.000000000001
 20
-995.9706401825151
 30
0.0
 11
-1082.936580970331
 21
-995.9706401825151
 31
0.0
  0
SOLID
  5
174
330
170
100
AcDbEntity
  8
1
 62
     2
100
AcDbTrace
 10
-1083.975797228775
 20
-923.4706401825151
 30
0.0
 11
-1084.897364711887
 21
-923.4706401825151
 31
0.0
 12
-1084.436580970331
 22
-919.9706401825151
 32
0.0
 13
-1084.436580970331
 23
-919.9706401825151
 33
0.0
  0
SOLID
  5
175
330
170
100
AcDbEntity
  8
1
 62
     2
100
AcDbTrace
 10
-1084.897364711887
 20
-992.4706401825151
 30
0.0
 11
-1083.975797228775
 21
-992.4706401825151
 31
0.0
 12
-1084.436580970331
 22
-995.9706401825151
 32
0.0
 13
-1084.436580970331
 23
-995.9706401825151
 33
0.0
  0
MTEXT
  5
176
330
170
100
AcDbEntity
  8
1
 62
     3
100
AcDbMText
 10
-1085.936580970331
 20
-959.0542127799231
 30
0.0
 40
3.5
 41
0.0
 71
     7
 72
     1
  1
76
  7
CONVERTER_11
 11
0.0
 21
1.0
 31
0.0
 73
     1
 44
0.60024009603842
  0
ENDBLK
  5
178
330
170
100
AcDbEntity
  8
0
100
AcDbBlockEnd
  0
BLOCK
  5
182
330
17B
100
AcDbEntity
  8
0
100
AcDbBlockBegin
  2
*D19
 70
     1
 10
0.0
 20
0.0
 30
0.0
  3
*D19
  1

  0
LINE
  5
17C
330
17B
100
AcDbEntity
  8
1
  6
Continuous
 62
     2
100
AcDbLine
 10
-1168.000000000002
 20
-1006.64403291917
 30
0.0
 11
-1098.000000000002
 21
-1006.64403291917
 31
0.0
  0
LINE
  5
17D
330
17B
100
AcDbEntity
  8
1
  6
Continuous
 62
     2
100
AcDbLine
 10
-1168.000000000002
 20
-993.970640182515
 30
0.0
 11
-1168.000000000002
 21
-1008.14403291917
 31
0.0
  0
LINE
  5
17E
330
17B
100
AcDbEntity
  8
1
  6
Continuous
 62
     2
100
AcDbLine
 10
-1098.000000000002
 20
-993.970640182515
 30
0.0
 11
-1098.000000000002
 21
-1008.14403291917
 31
0.0
  0
SOLID
  5
17F
330
17B
100
AcDbEntity
  8
1
 62
     2
100
AcDbTrace
 10
-1164.500000000002
 20
-1006.183249177614
 30
0.0
 11
-1164.500000000002
 21
-1007.104816660726
 31
0.0
 12
-1168.000000000002
 22
-1006.64403291917
 32
0.0
 13
-1168.000000000002
 23
-1006.64403291917
 33
0.0
  0
SOLID
  5
180
330
17B
100
AcDbEntity
  8
1
 62
     2
100
AcDbTrace
 10
-1101.500000000002
 20
-1007.104816660726
 30
0.0
 11
-1101.500000000002
 21
-1006.183249177614
 31
0.0
 12
-1098.000000000002
 22
-1006.64403291917
 32
0.0
 13
-1098.000000000002
 23
-1006.64403291917
 33
0.0
  0
MTEXT
  5
181
330
17B
100
AcDbEntity
  8
1
 62
     3
100
AcDbMText
 10
-1135.819828269012
 20
-1005.14403291917
 30
0.0
 40
3.5
 41
0.0
 71
     7
 72
     1
  1
70
  7
CONVERTER_11
 11
0.9999999999970619
 21
2.424068405545306E-6
 31
0.0
 73
     1
 44
0.60024009603842
  0
ENDBLK
  5
183
330
17B
100
AcDbEntity
  8
0
100
AcDbBlockEnd
  0
ENDSEC
  0
SECTION
  2
ENTITIES
  0
INSERT
  5
B5
330
1F
100
AcDbEntity
  8
1
100
AcDbBlockReference
  2
1
 10
0.0
 20
0.0
 30
0.0
  0
ENDSEC
  0
SECTION
  2
OBJECTS
  0
DICTIONARY
  5
C
330
0
100
AcDbDictionary
281
     1
  3
ACAD_DETAILVIEWSTYLE
350
318
  3
ACAD_GROUP
350
D
  3
ACAD_LAYOUT
350
1A
  3
ACAD_MATERIAL
350
43
  3
ACAD_MLEADERSTYLE
350
6B
  3
ACAD_MLINESTYLE
350
17
  3
ACAD_PLOTSETTINGS
350
19
  3
ACAD_PLOTSTYLENAME
350
E
  3
ACAD_SCALELIST
350
47
  3
ACAD_SECTIONVIEWSTYLE
350
319
  3
ACAD_TABLESTYLE
350
69
  3
ACAD_VISUALSTYLE
350
2A
  3
ACDB_RECOMPOSE_DATA
350
315
  3
AcDbVariableDictionary
350
2D5
  0
DICTIONARY
  5
2D3
330
8
100
AcDbDictionary
280
     1
281
     1
  3
ACAD_XREC_ROUNDTRIP
360
2D4
  0
DICTIONARY
  5
318
102
{ACAD_REACTORS
330
C
102
}
330
C
100
AcDbDictionary
281
     1
  0
DICTIONARY
  5
D
102
{ACAD_REACTORS
330
C
102
}
330
C
100
AcDbDictionary
281
     1
  0
DICTIONARY
  5
1A
102
{ACAD_REACTORS
330
C
102
}
330
C
100
AcDbDictionary
281
     1
  3
Layout1
350
1E
  3
Layout2
350
26
  3
Model
350
22
  0
DICTIONARY
  5
43
102
{ACAD_REACTORS
330
C
102
}
330
C
100
AcDbDictionary
281
     1
  3
ByBlock
350
45
  3
ByLayer
350
44
  3
Global
350
46
  0
DICTIONARY
  5
6B
102
{ACAD_REACTORS
330
C
102
}
330
C
100
AcDbDictionary
281
     1
  3
Standard
350
6C
  0
DICTIONARY
  5
17
102
{ACAD_REACTORS
330
C
102
}
330
C
100
AcDbDictionary
281
     1
  3
Standard
350
18
  0
DICTIONARY
  5
19
102
{ACAD_REACTORS
330
C
102
}
330
C
100
AcDbDictionary
281
     1
  0
ACDBDICTIONARYWDFLT
  5
E
102
{ACAD_REACTORS
330
C
102
}
330
C
100
AcDbDictionary
281
     1
  3
Normal
350
F
100
AcDbDictionaryWithDefault
340
F
  0
DICTIONARY
  5
47
102
{ACAD_REACTORS
330
C
102
}
330
C
100
AcDbDictionary
281
     1
  3
A0
350
48
  3
A1
350
49
  3
A2
350
4A
  3
A3
350
4B
  3
A4
350
4C
  3
A5
350
4D
  3
A6
350
4E
  3
A7
350
4F
  3
A8
350
50
  3
A9
350
51
  3
B0
350
52
  3
B1
350
53
  3
B2
350
54
  3
B3
350
55
  3
B4
350
56
  3
B5
350
57
  3
B6
350
58
  3
B7
350
59
  3
B8
350
5A
  3
B9
350
5B
  3
C0
350
5C
  3
C1
350
5D
  3
C2
350
5E
  3
C3
350
5F
  3
C4
350
60
  3
C5
350
61
  3
C6
350
62
  3
C7
350
63
  3
C8
350
64
  3
C9
350
65
  3
D0
350
66
  3
D1
350
67
  3
D2
350
68
  0
DICTIONARY
  5
319
102
{ACAD_REACTORS
330
C
102
}
330
C
100
AcDbDictionary
281
     1
  0
DICTIONARY
  5
69
102
{ACAD_REACTORS
330
C
102
}
330
C
100
AcDbDictionary
281
     1
  3
Standard
350
6A
  0
DICTIONARY
  5
2A
102
{ACAD_REACTORS
330
C
102
}
330
C
100
AcDbDictionary
281
     1
  3
2dWireframe
350
2F
  3
Basic
350
32
  3
Brighten
350
36
  3
ColorChange
350
3A
  3
Conceptual
350
34
  3
Dim
350
35
  3
EdgeColorOff
350
3D
  3
Facepattern
350
39
  3
Flat
350
2B
  3
FlatWithEdges
350
2C
  3
Gouraud
350
2D
  3
GouraudWithEdges
350
2E
  3
Hidden
350
31
  3
JitterOff
350
3B
  3
Linepattern
350
38
  3
OverhangOff
350
3C
  3
Realistic
350
33
  3
Shaded
350
42
  3
Shaded with edges
350
41
  3
Shades of Gray
350
3E
  3
Sketchy
350
3F
  3
Thicken
350
37
  3
Wireframe
350
30
  3
X-Ray
350
40
  0
XRECORD
  5
315
102
{ACAD_REACTORS
330
C
102
}
330
C
100
AcDbXrecord
280
     1
 90
        1
330
6A
  0
DICTIONARY
  5
2D5
102
{ACAD_REACTORS
330
C
102
}
330
C
100
AcDbDictionary
281
     1
  3
CANNOSCALE
350
2D6
  3
CMLEADERSTYLE
350
317
  3
CTABLESTYLE
350
316
  3
MSLTSCALE
350
2D7
  3
XCLIPFRAME
350
2D8
  0
XRECORD
  5
2D4
102
{ACAD_REACTORS
330
2D3
102
}
330
2D3
100
AcDbXrecord
280
     1
102
VTR_0.000_0.000_1.000_1.000_VISUALSTYLE
340
2F
102
VTR_0.000_0.000_1.000_1.000_GRIDDISPLAY
 70
     3
102
VTR_0.000_0.000_1.000_1.000_GRIDMAJOR
 70
     5
102
VTR_0.000_0.000_1.000_1.000_DEFAULTLIGHTING
280
     1
102
VTR_0.000_0.000_1.000_1.000_DEFAULTLIGHTINGTYPE
 70
     1
102
VTR_0.000_0.000_1.000_1.000_BRIGHTNESS
141
0.0
102
VTR_0.000_0.000_1.000_1.000_CONTRAST
142
0.0
  0
LAYOUT
  5
1E
102
{ACAD_REACTORS
330
1A
102
}
330
1A
100
AcDbPlotSettings
  1

  2
none_device
  4

  6

 40
0.0
 41
0.0
 42
0.0
 43
0.0
 44
0.0
 45
0.0
 46
0.0
 47
0.0
 48
0.0
 49
0.0
140
0.0
141
0.0
142
1.0
143
1.0
 70
   688
 72
     0
 73
     0
 74
     5
  7

 75
    16
 76
     0
 77
     2
 78
   300
147
1.0
148
0.0
149
0.0
100
AcDbLayout
  1
Layout1
 70
     1
 71
     1
 10
0.0
 20
0.0
 11
12.0
 21
9.0
 12
0.0
 22
0.0
 32
0.0
 14
1.00000000000000E+20
 24
1.00000000000000E+20
 34
1.00000000000000E+20
 15
-1.00000000000000E+20
 25
-1.00000000000000E+20
 35
-1.00000000000000E+20
146
0.0
 13
0.0
 23
0.0
 33
0.0
 16
1.0
 26
0.0
 36
0.0
 17
0.0
 27
1.0
 37
0.0
 76
     0
330
1B
  0
LAYOUT
  5
26
102
{ACAD_REACTORS
330
1A
102
}
330
1A
100
AcDbPlotSettings
  1

  2
none_device
  4

  6

 40
0.0
 41
0.0
 42
0.0
 43
0.0
 44
0.0
 45
0.0
 46
0.0
 47
0.0
 48
0.0
 49
0.0
140
0.0
141
0.0
142
1.0
143
1.0
 70
   688
 72
     0
 73
     0
 74
     5
  7

 75
    16
 76
     0
 77
     2
 78
   300
147
1.0
148
0.0
149
0.0
100
AcDbLayout
  1
Layout2
 70
     1
 71
     2
 10
0.0
 20
0.0
 11
0.0
 21
0.0
 12
0.0
 22
0.0
 32
0.0
 14
0.0
 24
0.0
 34
0.0
 15
0.0
 25
0.0
 35
0.0
146
0.0
 13
0.0
 23
0.0
 33
0.0
 16
1.0
 26
0.0
 36
0.0
 17
0.0
 27
1.0
 37
0.0
 76
     0
330
23
  0
LAYOUT
  5
22
102
{ACAD_REACTORS
330
1A
102
}
330
1A
100
AcDbPlotSettings
  1

  2
none_device
  4
Letter_(8.50_x_11.00_Inches)
  6

 40
6.35
 41
6.35
 42
6.35000508
 43
6.35000508
 44
215.9
 45
279.4
 46
0.0
 47
0.0
 48
0.0
 49
0.0
140
0.0
141
0.0
142
1.0
143
1.0
 70
  1712
 72
     0
 73
     0
 74
     0
  7

 75
     0
 76
     0
 77
     2
 78
   300
147
1.0
148
0.0
149
0.0
100
AcDbLayout
  1
Model
 70
     1
 71
     0
 10
0.0
 20
0.0
 11
12.0
 21
9.0
 12
0.0
 22
0.0
 32
0.0
 14
-1301.000000000007
 24
-1181.500000000008
 34
0.0
 15
-881.0000000000084
 25
-884.5000000000075
 35
0.0
146
0.0
 13
0.0
 23
0.0
 33
0.0
 16
1.0
 26
0.0
 36
0.0
 17
0.0
 27
1.0
 37
0.0
 76
     0
330
1F
331
29
  0
MATERIAL
  5
45
102
{ACAD_REACTORS
330
43
102
}
102
{ACAD_XDICTIONARY
360
30B
102
}
330
43
100
AcDbMaterial
  1
ByBlock
  0
MATERIAL
  5
44
102
{ACAD_REACTORS
330
43
102
}
102
{ACAD_XDICTIONARY
360
309
102
}
330
43
100
AcDbMaterial
  1
ByLayer
  0
MATERIAL
  5
46
102
{ACAD_REACTORS
330
43
102
}
102
{ACAD_XDICTIONARY
360
30D
102
}
330
43
100
AcDbMaterial
  1
Global
  0
MLEADERSTYLE
  5
6C
102
{ACAD_REACTORS
330
6B
102
}
102
{ACAD_XDICTIONARY
360
313
102
}
330
6B
100
AcDbMLeaderStyle
170
     2
171
     1
172
     0
 90
        2
 40
0.0
 41
0.0
173
     1
 91
-1056964608
340
14
 92
       -2
290
     1
 42
0.09
291
     1
 43
0.36
  3
Standard
341
0
 44
0.18
300

342
11
174
     1
178
     6
175
     1
176
     0
 93
-1056964608
 45
0.18
292
     0
297
     0
 46
0.18
343
0
 94
-1056964608
 47
1.0
 49
1.0
140
1.0
293
     1
141
0.0
294
     1
177
     0
142
1.0
295
     0
296
     0
143
0.125
1001
ACAD_MLEADERVER
1070
     2
  0
MLINESTYLE
  5
18
102
{ACAD_REACTORS
330
17
102
}
330
17
100
AcDbMlineStyle
  2
Standard
 70
     0
  3

 62
   256
 51
90.0
 52
90.0
 71
     2
 49
0.5
 62
   256
  6
BYLAYER
 49
-0.5
 62
   256
  6
BYLAYER
  0
ACDBPLACEHOLDER
  5
F
102
{ACAD_REACTORS
330
E
102
}
330
E
  0
SCALE
  5
48
102
{ACAD_REACTORS
330
47
102
}
330
47
100
AcDbScale
 70
     0
300
1:1
140
1.0
141
1.0
290
     1
  0
SCALE
  5
49
102
{ACAD_REACTORS
330
47
102
}
330
47
100
AcDbScale
 70
     0
300
1:2
140
1.0
141
2.0
290
     0
  0
SCALE
  5
4A
102
{ACAD_REACTORS
330
47
102
}
330
47
100
AcDbScale
 70
     0
300
1:4
140
1.0
141
4.0
290
     0
  0
SCALE
  5
4B
102
{ACAD_REACTORS
330
47
102
}
330
47
100
AcDbScale
 70
     0
300
1:5
140
1.0
141
5.0
290
     0
  0
SCALE
  5
4C
102
{ACAD_REACTORS
330
47
102
}
330
47
100
AcDbScale
 70
     0
300
1:8
140
1.0
141
8.0
290
     0
  0
SCALE
  5
4D
102
{ACAD_REACTORS
330
47
102
}
330
47
100
AcDbScale
 70
     0
300
1:10
140
1.0
141
10.0
290
     0
  0
SCALE
  5
4E
102
{ACAD_REACTORS
330
47
102
}
330
47
100
AcDbScale
 70
     0
300
1:16
140
1.0
141
16.0
290
     0
  0
SCALE
  5
4F
102
{ACAD_REACTORS
330
47
102
}
330
47
100
AcDbScale
 70
     0
300
1:20
140
1.0
141
20.0
290
     0
  0
SCALE
  5
50
102
{ACAD_REACTORS
330
47
102
}
330
47
100
AcDbScale
 70
     0
300
1:30
140
1.0
141
30.0
290
     0
  0
SCALE
  5
51
102
{ACAD_REACTORS
330
47
102
}
330
47
100
AcDbScale
 70
     0
300
1:40
140
1.0
141
40.0
290
     0
  0
SCALE
  5
52
102
{ACAD_REACTORS
330
47
102
}
330
47
100
AcDbScale
 70
     0
300
1:50
140
1.0
141
50.0
290
     0
  0
SCALE
  5
53
102
{ACAD_REACTORS
330
47
102
}
330
47
100
AcDbScale
 70
     0
300
1:100
140
1.0
141
100.0
290
     0
  0
SCALE
  5
54
102
{ACAD_REACTORS
330
47
102
}
330
47
100
AcDbScale
 70
     0
300
2:1
140
2.0
141
1.0
290
     0
  0
SCALE
  5
55
102
{ACAD_REACTORS
330
47
102
}
330
47
100
AcDbScale
 70
     0
300
4:1
140
4.0
141
1.0
290
     0
  0
SCALE
  5
56
102
{ACAD_REACTORS
330
47
102
}
330
47
100
AcDbScale
 70
     0
300
8:1
140
8.0
141
1.0
290
     0
  0
SCALE
  5
57
102
{ACAD_REACTORS
330
47
102
}
330
47
100
AcDbScale
 70
     0
300
10:1
140
10.0
141
1.0
290
     0
  0
SCALE
  5
58
102
{ACAD_REACTORS
330
47
102
}
330
47
100
AcDbScale
 70
     0
300
100:1
140
100.0
141
1.0
290
     0
  0
SCALE
  5
59
102
{ACAD_REACTORS
330
47
102
}
330
47
100
AcDbScale
 70
     0
300
1/128" = 1'-0"
140
0.0078125
141
12.0
290
     0
  0
SCALE
  5
5A
102
{ACAD_REACTORS
330
47
102
}
330
47
100
AcDbScale
 70
     0
300
1/64" = 1'-0"
140
0.015625
141
12.0
290
     0
  0
SCALE
  5
5B
102
{ACAD_REACTORS
330
47
102
}
330
47
100
AcDbScale
 70
     0
300
1/32" = 1'-0"
140
0.03125
141
12.0
290
     0
  0
SCALE
  5
5C
102
{ACAD_REACTORS
330
47
102
}
330
47
100
AcDbScale
 70
     0
300
1/16" = 1'-0"
140
0.0625
141
12.0
290
     0
  0
SCALE
  5
5D
102
{ACAD_REACTORS
330
47
102
}
330
47
100
AcDbScale
 70
     0
300
3/32" = 1'-0"
140
0.09375
141
12.0
290
     0
  0
SCALE
  5
5E
102
{ACAD_REACTORS
330
47
102
}
330
47
100
AcDbScale
 70
     0
300
1/8" = 1'-0"
140
0.125
141
12.0
290
     0
  0
SCALE
  5
5F
102
{ACAD_REACTORS
330
47
102
}
330
47
100
AcDbScale
 70
     0
300
3/16" = 1'-0"
140
0.1875
141
12.0
290
     0
  0
SCALE
  5
60
102
{ACAD_REACTORS
330
47
102
}
330
47
100
AcDbScale
 70
     0
300
1/4" = 1'-0"
140
0.25
141
12.0
290
     0
  0
SCALE
  5
61
102
{ACAD_REACTORS
330
47
102
}
330
47
100
AcDbScale
 70
     0
300
3/8" = 1'-0"
140
0.375
141
12.0
290
     0
  0
SCALE
  5
62
102
{ACAD_REACTORS
330
47
102
}
330
47
100
AcDbScale
 70
     0
300
1/2" = 1'-0"
140
0.5
141
12.0
290
     0
  0
SCALE
  5
63
102
{ACAD_REACTORS
330
47
102
}
330
47
100
AcDbScale
 70
     0
300
3/4" = 1'-0"
140
0.75
141
12.0
290
     0
  0
SCALE
  5
64
102
{ACAD_REACTORS
330
47
102
}
330
47
100
AcDbScale
 70
     0
300
1" = 1'-0"
140
1.0
141
12.0
290
     0
  0
SCALE
  5
65
102
{ACAD_REACTORS
330
47
102
}
330
47
100
AcDbScale
 70
     0
300
1-1/2" = 1'-0"
140
1.5
141
12.0
290
     0
  0
SCALE
  5
66
102
{ACAD_REACTORS
330
47
102
}
330
47
100
AcDbScale
 70
     0
300
3" = 1'-0"
140
3.0
141
12.0
290
     0
  0
SCALE
  5
67
102
{ACAD_REACTORS
330
47
102
}
330
47
100
AcDbScale
 70
     0
300
6" = 1'-0"
140
6.0
141
12.0
290
     0
  0
SCALE
  5
68
102
{ACAD_REACTORS
330
47
102
}
330
47
100
AcDbScale
 70
     0
300
1'-0" = 1'-0"
140
12.0
141
12.0
290
     0
  0
TABLESTYLE
  5
6A
102
{ACAD_REACTORS
330
69
102
}
102
{ACAD_XDICTIONARY
360
30F
102
}
330
69
100
AcDbTableStyle
  3
Standard
 70
     0
 71
     0
 40
0.06
 41
0.06
280
     0
281
     0
  7
Standard
140
0.18
170
     2
 62
     0
 63
   257
283
     0
274
    -2
284
     1
 64
     0
275
    -2
285
     1
 65
     0
276
    -2
286
     1
 66
     0
277
    -2
287
     1
 67
     0
278
    -2
288
     1
 68
     0
279
    -2
289
     1
 69
     0
  7
Standard
140
0.25
170
     5
 62
     0
 63
   257
283
     0
274
    -2
284
     1
 64
     0
275
    -2
285
     1
 65
     0
276
    -2
286
     1
 66
     0
277
    -2
287
     1
 67
     0
278
    -2
288
     1
 68
     0
279
    -2
289
     1
 69
     0
  7
Standard
140
0.18
170
     5
 62
     0
 63
   257
283
     0
274
    -2
284
     1
 64
     0
275
    -2
285
     1
 65
     0
276
    -2
286
     1
 66
     0
277
    -2
287
     1
 67
     0
278
    -2
288
     1
 68
     0
279
    -2
289
     1
 69
     0
  0
VISUALSTYLE
  5
2F
102
{ACAD_REACTORS
330
2A
102
}
102
{ACAD_XDICTIONARY
360
2E1
102
}
330
2A
100
AcDbVisualStyle
  2
2dWireframe
 70
     4
 71
     0
 72
     2
 73
     0
 90
        0
 40
0.6
 41
30.0
 62
     5
 63
     7
421
 16777215
 74
     1
 91
        4
 64
     7
 65
   257
 75
     1
175
     1
 42
1.0
 92
        0
 66
   257
 43
1.0
 76
     1
 77
     6
 78
     2
 67
     7
 79
     5
170
     0
171
     0
290
     0
174
     0
 93
        1
 44
0.0
173
     0
291
     0
 45
0.0
1001
ACAD
1000
AcDbSavedByObjectVersion
1070
     0
  0
VISUALSTYLE
  5
32
102
{ACAD_REACTORS
330
2A
102
}
102
{ACAD_XDICTIONARY
360
2E7
102
}
330
2A
100
AcDbVisualStyle
  2
Basic
 70
     7
 71
     1
 72
     0
 73
     1
 90
        0
 40
0.6
 41
30.0
 62
     5
 63
     7
421
 16777215
 74
     0
 91
        4
 64
     7
 65
   257
 75
     1
175
     1
 42
1.0
 92
        8
 66
     7
 43
1.0
 76
     1
 77
     6
 78
     2
 67
     7
 79
     5
170
     0
171
     0
290
     0
174
     0
 93
        1
 44
0.0
173
     0
291
     1
 45
0.0
1001
ACAD
1000
AcDbSavedByObjectVersion
1070
     0
  0
VISUALSTYLE
  5
36
102
{ACAD_REACTORS
330
2A
102
}
102
{ACAD_XDICTIONARY
360
2EF
102
}
330
2A
100
AcDbVisualStyle
  2
Brighten
 70
    12
 71
     2
 72
     2
 73
     0
 90
        0
 40
0.6
 41
30.0
 62
     5
 63
     7
421
 16777215
 74
     1
 91
        4
 64
     7
 65
   257
 75
     1
175
     1
 42
1.0
 92
        8
 66
     7
 43
1.0
 76
     1
 77
     6
 78
     2
 67
     7
 79
     5
170
     0
171
     0
290
     0
174
     0
 93
        1
 44
50.0
173
     0
291
     1
 45
0.0
1001
ACAD
1000
AcDbSavedByObjectVersion
1070
     0
  0
VISUALSTYLE
  5
3A
102
{ACAD_REACTORS
330
2A
102
}
102
{ACAD_XDICTIONARY
360
2F7
102
}
330
2A
100
AcDbVisualStyle
  2
ColorChange
 70
    16
 71
     2
 72
     2
 73
     3
 90
        0
 40
0.6
 41
30.0
 62
     5
 63
     8
421
  8421504
 74
     1
 91
        4
 64
     7
 65
   257
 75
     1
175
     1
 42
1.0
 92
        8
 66
     8
424
  8421504
 43
1.0
 76
     1
 77
     6
 78
     2
 67
     7
 79
     5
170
     0
171
     0
290
     0
174
     0
 93
        1
 44
0.0
173
     0
291
     1
 45
0.0
1001
ACAD
1000
AcDbSavedByObjectVersion
1070
     0
  0
VISUALSTYLE
  5
34
102
{ACAD_REACTORS
330
2A
102
}
102
{ACAD_XDICTIONARY
360
2EB
102
}
330
2A
100
AcDbVisualStyle
  2
Conceptual
 70
     9
 71
     3
 72
     2
 73
     0
 90
        0
 40
0.6
 41
30.0
 62
     5
 63
     7
421
 16777215
 74
     2
 91
        2
 64
     7
 65
   257
 75
     1
175
     1
 42
179.0
 92
        8
 66
     7
 43
1.0
 76
     1
 77
     6
 78
     2
 67
     7
 79
     3
170
     0
171
     0
290
     0
174
     0
 93
        1
 44
0.0
173
     0
291
     0
 45
0.0
1001
ACAD
1000
AcDbSavedByObjectVersion
1070
     0
  0
VISUALSTYLE
  5
35
102
{ACAD_REACTORS
330
2A
102
}
102
{ACAD_XDICTIONARY
360
2ED
102
}
330
2A
100
AcDbVisualStyle
  2
Dim
 70
    11
 71
     2
 72
     2
 73
     0
 90
        0
 40
0.6
 41
30.0
 62
     5
 63
     7
421
 16777215
 74
     1
 91
        4
 64
     7
 65
   257
 75
     1
175
     1
 42
1.0
 92
        8
 66
     7
 43
1.0
 76
     1
 77
     6
 78
     2
 67
     7
 79
     5
170
     0
171
     0
290
     0
174
     0
 93
        1
 44
-50.0
173
     0
291
     1
 45
0.0
1001
ACAD
1000
AcDbSavedByObjectVersion
1070
     0
  0
VISUALSTYLE
  5
3D
102
{ACAD_REACTORS
330
2A
102
}
102
{ACAD_XDICTIONARY
360
2FD
102
}
330
2A
100
AcDbVisualStyle
  2
EdgeColorOff
 70
    22
 71
     2
 72
     2
 73
     0
 90
        0
 40
0.6
 41
30.0
 62
     5
 63
     7
421
 16777215
 74
     1
 91
        4
 64
     7
 65
   257
 75
     1
175
     1
 42
1.0
 92
        8
 66
     7
 43
1.0
 76
     1
 77
     6
 78
     2
 67
     7
 79
     5
170
     0
171
     0
290
     0
174
     0
 93
        1
 44
0.0
173
     0
291
     1
 45
0.0
1001
ACAD
1000
AcDbSavedByObjectVersion
1070
     0
  0
VISUALSTYLE
  5
39
102
{ACAD_REACTORS
330
2A
102
}
102
{ACAD_XDICTIONARY
360
2F5
102
}
330
2A
100
AcDbVisualStyle
  2
Facepattern
 70
    15
 71
     2
 72
     2
 73
     0
 90
        0
 40
0.6
 41
30.0
 62
     5
 63
     7
421
 16777215
 74
     1
 91
        4
 64
     7
 65
   257
 75
     1
175
     1
 42
1.0
 92
        8
 66
     7
 43
1.0
 76
     1
 77
     6
 78
     2
 67
     7
 79
     5
170
     0
171
     0
290
     0
174
     0
 93
        1
 44
0.0
173
     0
291
     1
 45
0.0
1001
ACAD
1000
AcDbSavedByObjectVersion
1070
     0
  0
VISUALSTYLE
  5
2B
102
{ACAD_REACTORS
330
2A
102
}
102
{ACAD_XDICTIONARY
360
2D9
102
}
330
2A
100
AcDbVisualStyle
  2
Flat
 70
     0
 71
     2
 72
     1
 73
     1
 90
        2
 40
0.6
 41
30.0
 62
     5
 63
     7
421
 16777215
 74
     0
 91
        0
 64
     7
 65
   257
 75
     1
175
     1
 42
1.0
 92
        8
 66
     7
 43
1.0
 76
     1
 77
     6
 78
     2
 67
     7
 79
     5
170
     0
171
     0
290
     0
174
     0
 93
       13
 44
0.0
173
     0
291
     1
 45
0.0
1001
ACAD
1000
AcDbSavedByObjectVersion
1070
     0
  0
VISUALSTYLE
  5
2C
102
{ACAD_REACTORS
330
2A
102
}
102
{ACAD_XDICTIONARY
360
2DB
102
}
330
2A
100
AcDbVisualStyle
  2
FlatWithEdges
 70
     1
 71
     2
 72
     1
 73
     1
 90
        2
 40
0.6
 41
30.0
 62
     5
 63
     7
421
 16777215
 74
     1
 91
        0
 64
     7
 65
   257
 75
     1
175
     1
 42
1.0
 92
        0
 66
   257
 43
1.0
 76
     1
 77
     6
 78
     2
 67
     7
 79
     5
170
     0
171
     0
290
     0
174
     0
 93
       13
 44
0.0
173
     0
291
     1
 45
0.0
1001
ACAD
1000
AcDbSavedByObjectVersion
1070
     0
  0
VISUALSTYLE
  5
2D
102
{ACAD_REACTORS
330
2A
102
}
102
{ACAD_XDICTIONARY
360
2DD
102
}
330
2A
100
AcDbVisualStyle
  2
Gouraud
 70
     2
 71
     2
 72
     2
 73
     1
 90
        2
 40
0.6
 41
30.0
 62
     5
 63
     7
421
 16777215
 74
     0
 91
        0
 64
     7
 65
   257
 75
     1
175
     1
 42
1.0
 92
        0
 66
     7
 43
1.0
 76
     1
 77
     6
 78
     2
 67
     7
 79
     5
170
     0
171
     0
290
     0
174
     0
 93
       13
 44
0.0
173
     0
291
     1
 45
0.0
1001
ACAD
1000
AcDbSavedByObjectVersion
1070
     0
  0
VISUALSTYLE
  5
2E
102
{ACAD_REACTORS
330
2A
102
}
102
{ACAD_XDICTIONARY
360
2DF
102
}
330
2A
100
AcDbVisualStyle
  2
GouraudWithEdges
 70
     3
 71
     2
 72
     2
 73
     1
 90
        2
 40
0.6
 41
30.0
 62
     5
 63
     7
421
 16777215
 74
     1
 91
        0
 64
     7
 65
   257
 75
     1
175
     1
 42
1.0
 92
        0
 66
   257
 43
1.0
 76
     1
 77
     6
 78
     2
 67
     7
 79
     5
170
     0
171
     0
290
     0
174
     0
 93
       13
 44
0.0
173
     0
291
     1
 45
0.0
1001
ACAD
1000
AcDbSavedByObjectVersion
1070
     0
  0
VISUALSTYLE
  5
31
102
{ACAD_REACTORS
330
2A
102
}
102
{ACAD_XDICTIONARY
360
2E5
102
}
330
2A
100
AcDbVisualStyle
  2
Hidden
 70
     6
 71
     1
 72
     2
 73
     2
 90
        0
 40
0.6
 41
30.0
 62
     5
 63
     7
421
 16777215
 74
     2
 91
        2
 64
     7
 65
   257
 75
     2
175
     1
 42
40.0
 92
        0
 66
   257
 43
1.0
 76
     1
 77
     6
 78
     2
 67
     7
 79
     3
170
     0
171
     0
290
     0
174
     0
 93
        1
 44
0.0
173
     0
291
     0
 45
0.0
1001
ACAD
1000
AcDbSavedByObjectVersion
1070
     0
  0
VISUALSTYLE
  5
3B
102
{ACAD_REACTORS
330
2A
102
}
102
{ACAD_XDICTIONARY
360
2F9
102
}
330
2A
100
AcDbVisualStyle
  2
JitterOff
 70
    20
 71
     2
 72
     2
 73
     0
 90
        0
 40
0.6
 41
30.0
 62
     5
 63
     7
421
 16777215
 74
     1
 91
        4
 64
     7
 65
   257
 75
     1
175
     1
 42
1.0
 92
       10
 66
     7
 43
1.0
 76
     1
 77
     6
 78
     2
 67
     7
 79
     5
170
     0
171
     0
290
     0
174
     0
 93
        1
 44
0.0
173
     0
291
     1
 45
0.0
1001
ACAD
1000
AcDbSavedByObjectVersion
1070
     0
  0
VISUALSTYLE
  5
38
102
{ACAD_REACTORS
330
2A
102
}
102
{ACAD_XDICTIONARY
360
2F3
102
}
330
2A
100
AcDbVisualStyle
  2
Linepattern
 70
    14
 71
     2
 72
     2
 73
     0
 90
        0
 40
0.6
 41
30.0
 62
     5
 63
     7
421
 16777215
 74
     1
 91
        4
 64
     7
 65
   257
 75
     7
175
     7
 42
1.0
 92
        8
 66
     7
 43
1.0
 76
     1
 77
     6
 78
     2
 67
     7
 79
     5
170
     0
171
     0
290
     0
174
     0
 93
        1
 44
0.0
173
     0
291
     1
 45
0.0
1001
ACAD
1000
AcDbSavedByObjectVersion
1070
     0
  0
VISUALSTYLE
  5
3C
102
{ACAD_REACTORS
330
2A
102
}
102
{ACAD_XDICTIONARY
360
2FB
102
}
330
2A
100
AcDbVisualStyle
  2
OverhangOff
 70
    21
 71
     2
 72
     2
 73
     0
 90
        0
 40
0.6
 41
30.0
 62
     5
 63
     7
421
 16777215
 74
     1
 91
        4
 64
     7
 65
   257
 75
     1
175
     1
 42
1.0
 92
        9
 66
     7
 43
1.0
 76
     1
 77
     6
 78
     2
 67
     7
 79
     5
170
     0
171
     0
290
     0
174
     0
 93
        1
 44
0.0
173
     0
291
     1
 45
0.0
1001
ACAD
1000
AcDbSavedByObjectVersion
1070
     0
  0
VISUALSTYLE
  5
33
102
{ACAD_REACTORS
330
2A
102
}
102
{ACAD_XDICTIONARY
360
2E9
102
}
330
2A
100
AcDbVisualStyle
  2
Realistic
 70
     8
 71
     2
 72
     3
 73
     0
 90
        2
 40
0.6
 41
30.0
 62
     5
 63
     7
421
 16777215
 74
     0
 91
        0
 64
     7
 65
   257
 75
     1
175
     1
 42
1.0
 92
        8
 66
   257
 43
1.0
 76
     1
 77
     6
 78
     2
 67
     7
 79
     3
170
     0
171
     0
290
     0
174
     0
 93
       13
 44
0.0
173
     0
291
     0
 45
0.0
1001
ACAD
1000
AcDbSavedByObjectVersion
1070
     0
  0
VISUALSTYLE
  5
42
102
{ACAD_REACTORS
330
2A
102
}
102
{ACAD_XDICTIONARY
360
307
102
}
330
2A
100
AcDbVisualStyle
  2
Shaded
 70
    27
 71
     2
 72
     2
 73
     1
 90
        2
 40
0.6
 41
30.0
 62
     5
 63
     7
421
 16777215
 74
     0
 91
        4
 64
     7
 65
   257
 75
     1
175
     1
 42
1.0
 92
        8
 66
   257
 43
1.0
 76
     1
 77
     6
 78
     2
 67
     8
425
  7895160
 79
     3
170
     0
171
     0
290
     0
174
     0
 93
        5
 44
0.0
173
     0
291
     0
 45
0.0
1001
ACAD
1000
AcDbSavedByObjectVersion
1070
     0
  0
VISUALSTYLE
  5
41
102
{ACAD_REACTORS
330
2A
102
}
102
{ACAD_XDICTIONARY
360
305
102
}
330
2A
100
AcDbVisualStyle
  2
Shaded with edges
 70
    26
 71
     2
 72
     2
 73
     1
 90
        2
 40
0.6
 41
30.0
 62
     5
 63
     7
421
 16777215
 74
     1
 91
       10
 64
     7
 65
   257
 75
     2
175
     1
 42
1.0
 92
        8
 66
   257
 43
1.0
 76
     1
 77
     6
 78
     2
 67
     7
 79
     3
170
     0
171
     0
290
     0
174
     0
 93
        5
 44
0.0
173
     0
291
     0
 45
0.0
1001
ACAD
1000
AcDbSavedByObjectVersion
1070
     0
  0
VISUALSTYLE
  5
3E
102
{ACAD_REACTORS
330
2A
102
}
102
{ACAD_XDICTIONARY
360
2FF
102
}
330
2A
100
AcDbVisualStyle
  2
Shades of Gray
 70
    23
 71
     2
 72
     2
 73
     3
 90
        0
 40
0.6
 41
30.0
 62
     5
 63
     7
421
 16777215
 74
     2
 91
        2
 64
     7
 65
     7
 75
     1
175
     1
 42
40.0
 92
        8
 66
     7
 43
1.0
 76
     1
 77
     6
 78
     2
 67
     7
 79
     3
170
     0
171
     0
290
     0
174
     0
 93
        1
 44
0.0
173
     0
291
     0
 45
0.0
1001
ACAD
1000
AcDbSavedByObjectVersion
1070
     0
  0
VISUALSTYLE
  5
3F
102
{ACAD_REACTORS
330
2A
102
}
102
{ACAD_XDICTIONARY
360
301
102
}
330
2A
100
AcDbVisualStyle
  2
Sketchy
 70
    24
 71
     1
 72
     2
 73
     2
 90
        0
 40
0.6
 41
30.0
 62
     5
 63
     7
421
 16777215
 74
     2
 91
        2
 64
     7
 65
     7
 75
     1
175
     1
 42
40.0
 92
       11
 66
     7
 43
1.0
 76
     1
 77
     6
 78
     2
 67
     7
 79
     6
170
     0
171
     0
290
     0
174
     0
 93
        1
 44
0.0
173
     0
291
     0
 45
0.0
1001
ACAD
1000
AcDbSavedByObjectVersion
1070
     0
  0
VISUALSTYLE
  5
37
102
{ACAD_REACTORS
330
2A
102
}
102
{ACAD_XDICTIONARY
360
2F1
102
}
330
2A
100
AcDbVisualStyle
  2
Thicken
 70
    13
 71
     2
 72
     2
 73
     0
 90
        0
 40
0.6
 41
30.0
 62
     5
 63
     7
421
 16777215
 74
     1
 91
        4
 64
     7
 65
   257
 75
     1
175
     1
 42
1.0
 92
       12
 66
     7
 43
1.0
 76
     1
 77
     6
 78
     2
 67
     7
 79
     5
170
     0
171
     0
290
     0
174
     0
 93
        1
 44
0.0
173
     0
291
     1
 45
0.0
1001
ACAD
1000
AcDbSavedByObjectVersion
1070
     0
  0
VISUALSTYLE
  5
30
102
{ACAD_REACTORS
330
2A
102
}
102
{ACAD_XDICTIONARY
360
2E3
102
}
330
2A
100
AcDbVisualStyle
  2
Wireframe
 70
     5
 71
     0
 72
     2
 73
     0
 90
        0
 40
0.6
 41
30.0
 62
     5
 63
     7
421
 16777215
 74
     1
 91
        4
 64
     7
 65
   257
 75
     1
175
     1
 42
1.0
 92
        0
 66
   257
 43
1.0
 76
     1
 77
     6
 78
     2
 67
     7
 79
     3
170
     0
171
     0
290
     0
174
     0
 93
        1
 44
0.0
173
     0
291
     0
 45
0.0
1001
ACAD
1000
AcDbSavedByObjectVersion
1070
     0
  0
VISUALSTYLE
  5
40
102
{ACAD_REACTORS
330
2A
102
}
102
{ACAD_XDICTIONARY
360
303
102
}
330
2A
100
AcDbVisualStyle
  2
X-Ray
 70
    25
 71
     2
 72
     2
 73
     1
 90
        1
 40
0.5
 41
30.0
 62
     5
 63
     7
421
 16777215
 74
     1
 91
        0
 64
     7
 65
   257
 75
     1
175
     1
 42
1.0
 92
        8
 66
     7
 43
1.0
 76
     1
 77
     6
 78
     2
 67
     7
 79
     3
170
     0
171
     0
290
     0
174
     0
 93
       13
 44
0.0
173
     0
291
     0
 45
0.0
1001
ACAD
1000
AcDbSavedByObjectVersion
1070
     0
  0
DICTIONARYVAR
  5
2D6
102
{ACAD_REACTORS
330
2D5
102
}
330
2D5
100
DictionaryVariables
280
     0
  1
1:1
  0
DICTIONARYVAR
  5
317
102
{ACAD_REACTORS
330
2D5
102
}
330
2D5
100
DictionaryVariables
280
     0
  1
Standard
  0
DICTIONARYVAR
  5
316
102
{ACAD_REACTORS
330
2D5
102
}
330
2D5
100
DictionaryVariables
280
     0
  1
Standard
  0
DICTIONARYVAR
  5
2D7
102
{ACAD_REACTORS
330
2D5
102
}
330
2D5
100
DictionaryVariables
280
     0
  1
1
  0
DICTIONARYVAR
  5
2D8
102
{ACAD_REACTORS
330
2D5
102
}
330
2D5
100
DictionaryVariables
280
     0
  1
2
  0
DICTIONARY
  5
30B
330
45
100
AcDbDictionary
280
     1
281
     1
  3
ACAD_XREC_ROUNDTRIP
360
30C
  0
DICTIONARY
  5
309
330
44
100
AcDbDictionary
280
     1
281
     1
  3
ACAD_XREC_ROUNDTRIP
360
30A
  0
DICTIONARY
  5
30D
330
46
100
AcDbDictionary
280
     1
281
     1
  3
ACAD_XREC_ROUNDTRIP
360
30E
  0
DICTIONARY
  5
313
330
6C
100
AcDbDictionary
280
     1
281
     1
  3
ACAD_XREC_ROUNDTRIP
360
314
  0
DICTIONARY
  5
30F
330
6A
100
AcDbDictionary
280
     1
281
     1
  3
ACAD_ROUNDTRIP_2008_TABLESTYLE_CELLSTYLEMAP
360
311
  3
ACAD_XREC_ROUNDTRIP
360
310
  0
DICTIONARY
  5
2E1
330
2F
100
AcDbDictionary
280
     1
281
     1
  3
ACAD_XREC_ROUNDTRIP
360
2E2
  0
DICTIONARY
  5
2E7
330
32
100
AcDbDictionary
280
     1
281
     1
  3
ACAD_XREC_ROUNDTRIP
360
2E8
  0
DICTIONARY
  5
2EF
330
36
100
AcDbDictionary
280
     1
281
     1
  3
ACAD_XREC_ROUNDTRIP
360
2F0
  0
DICTIONARY
  5
2F7
330
3A
100
AcDbDictionary
280
     1
281
     1
  3
ACAD_XREC_ROUNDTRIP
360
2F8
  0
DICTIONARY
  5
2EB
330
34
100
AcDbDictionary
280
     1
281
     1
  3
ACAD_XREC_ROUNDTRIP
360
2EC
  0
DICTIONARY
  5
2ED
330
35
100
AcDbDictionary
280
     1
281
     1
  3
ACAD_XREC_ROUNDTRIP
360
2EE
  0
DICTIONARY
  5
2FD
330
3D
100
AcDbDictionary
280
     1
281
     1
  3
ACAD_XREC_ROUNDTRIP
360
2FE
  0
DICTIONARY
  5
2F5
330
39
100
AcDbDictionary
280
     1
281
     1
  3
ACAD_XREC_ROUNDTRIP
360
2F6
  0
DICTIONARY
  5
2D9
330
2B
100
AcDbDictionary
280
     1
281
     1
  3
ACAD_XREC_ROUNDTRIP
360
2DA
  0
DICTIONARY
  5
2DB
330
2C
100
AcDbDictionary
280
     1
281
     1
  3
ACAD_XREC_ROUNDTRIP
360
2DC
  0
DICTIONARY
  5
2DD
330
2D
100
AcDbDictionary
280
     1
281
     1
  3
ACAD_XREC_ROUNDTRIP
360
2DE
  0
DICTIONARY
  5
2DF
330
2E
100
AcDbDictionary
280
     1
281
     1
  3
ACAD_XREC_ROUNDTRIP
360
2E0
  0
DICTIONARY
  5
2E5
330
31
100
AcDbDictionary
280
     1
281
     1
  3
ACAD_XREC_ROUNDTRIP
360
2E6
  0
DICTIONARY
  5
2F9
330
3B
100
AcDbDictionary
280
     1
281
     1
  3
ACAD_XREC_ROUNDTRIP
360
2FA
  0
DICTIONARY
  5
2F3
330
38
100
AcDbDictionary
280
     1
281
     1
  3
ACAD_XREC_ROUNDTRIP
360
2F4
  0
DICTIONARY
  5
2FB
330
3C
100
AcDbDictionary
280
     1
281
     1
  3
ACAD_XREC_ROUNDTRIP
360
2FC
  0
DICTIONARY
  5
2E9
330
33
100
AcDbDictionary
280
     1
281
     1
  3
ACAD_XREC_ROUNDTRIP
360
2EA
  0
DICTIONARY
  5
307
330
42
100
AcDbDictionary
280
     1
281
     1
  3
ACAD_XREC_ROUNDTRIP
360
308
  0
DICTIONARY
  5
305
330
41
100
AcDbDictionary
280
     1
281
     1
  3
ACAD_XREC_ROUNDTRIP
360
306
  0
DICTIONARY
  5
2FF
330
3E
100
AcDbDictionary
280
     1
281
     1
  3
ACAD_XREC_ROUNDTRIP
360
300
  0
DICTIONARY
  5
301
330
3F
100
AcDbDictionary
280
     1
281
     1
  3
ACAD_XREC_ROUNDTRIP
360
302
  0
DICTIONARY
  5
2F1
330
37
100
AcDbDictionary
280
     1
281
     1
  3
ACAD_XREC_ROUNDTRIP
360
2F2
  0
DICTIONARY
  5
2E3
330
30
100
AcDbDictionary
280
     1
281
     1
  3
ACAD_XREC_ROUNDTRIP
360
2E4
  0
DICTIONARY
  5
303
330
40
100
AcDbDictionary
280
     1
281
     1
  3
ACAD_XREC_ROUNDTRIP
360
304
  0
XRECORD
  5
30C
102
{ACAD_REACTORS
330
30B
102
}
330
30B
100
AcDbXrecord
280
     1
102
MATERIAL
148
0.0
149
0.0
149
0.0
 93
        0
 94
      127
282
     0
 72
     1
 77
     1
171
     1
175
     1
179
     1
273
     0
  0
XRECORD
  5
30A
102
{ACAD_REACTORS
330
309
102
}
330
309
100
AcDbXrecord
280
     1
102
MATERIAL
148
0.0
149
0.0
149
0.0
 93
        0
 94
      127
282
     0
 72
     1
 77
     1
171
     1
175
     1
179
     1
273
     0
  0
XRECORD
  5
30E
102
{ACAD_REACTORS
330
30D
102
}
330
30D
100
AcDbXrecord
280
     1
102
MATERIAL
148
0.0
149
0.0
149
0.0
 93
        0
 94
      127
282
     0
 72
     1
 77
     1
171
     1
175
     1
179
     1
273
     0
  0
XRECORD
  5
314
102
{ACAD_REACTORS
330
313
102
}
330
313
100
AcDbXrecord
280
     1
102
ACAD_ROUNDTRIP_2010_MLEADER_STYLE
  0
CELLSTYLEMAP
  5
311
102
{ACAD_REACTORS
330
30F
102
}
330
30F
100
AcDbCellStyleMap
 90
        3
300
CELLSTYLE
  1
TABLEFORMAT_BEGIN
 90
        5
170
     1
 91
        0
 92
    32768
 62
   257
 93
        1
300
CONTENTFORMAT
  1
CONTENTFORMAT_BEGIN
 90
        0
 91
        0
 92
        4
 93
        0
300

 40
0.0
140
1.0
 94
        5
 62
     0
340
11
144
0.25
309
CONTENTFORMAT_END
171
     1
301
MARGIN
  1
CELLMARGIN_BEGIN
 40
0.06
 40
0.06
 40
0.06
 40
0.06
 40
0.06
 40
0.06
309
CELLMARGIN_END
 94
        6
 95
        1
302
GRIDFORMAT
  1
GRIDFORMAT_BEGIN
 90
        0
 91
        1
 62
     0
 92
       -2
340
14
 93
        0
 40
0.045
309
GRIDFORMAT_END
 95
        2
302
GRIDFORMAT
  1
GRIDFORMAT_BEGIN
 90
        0
 91
        1
 62
     0
 92
       -2
340
14
 93
        0
 40
0.045
309
GRIDFORMAT_END
 95
        4
302
GRIDFORMAT
  1
GRIDFORMAT_BEGIN
 90
        0
 91
        1
 62
     0
 92
       -2
340
14
 93
        0
 40
0.045
309
GRIDFORMAT_END
 95
        8
302
GRIDFORMAT
  1
GRIDFORMAT_BEGIN
 90
        0
 91
        1
 62
     0
 92
       -2
340
14
 93
        0
 40
0.045
309
GRIDFORMAT_END
 95
       16
302
GRIDFORMAT
  1
GRIDFORMAT_BEGIN
 90
        0
 91
        1
 62
     0
 92
       -2
340
14
 93
        0
 40
0.045
309
GRIDFORMAT_END
 95
       32
302
GRIDFORMAT
  1
GRIDFORMAT_BEGIN
 90
        0
 91
        1
 62
     0
 92
       -2
340
14
 93
        0
 40
0.045
309
GRIDFORMAT_END
309
TABLEFORMAT_END
  1
CELLSTYLE_BEGIN
 90
        1
 91
        1
300
_TITLE
309
CELLSTYLE_END
300
CELLSTYLE
  1
TABLEFORMAT_BEGIN
 90
        5
170
     1
 91
        0
 92
        0
 62
   257
 93
        1
300
CONTENTFORMAT
  1
CONTENTFORMAT_BEGIN
 90
        0
 91
        0
 92
        4
 93
        0
300

 40
0.0
140
1.0
 94
        5
 62
     0
340
11
144
0.18
309
CONTENTFORMAT_END
171
     1
301
MARGIN
  1
CELLMARGIN_BEGIN
 40
0.06
 40
0.06
 40
0.06
 40
0.06
 40
0.06
 40
0.06
309
CELLMARGIN_END
 94
        6
 95
        1
302
GRIDFORMAT
  1
GRIDFORMAT_BEGIN
 90
        0
 91
        1
 62
     0
 92
       -2
340
14
 93
        0
 40
0.045
309
GRIDFORMAT_END
 95
        2
302
GRIDFORMAT
  1
GRIDFORMAT_BEGIN
 90
        0
 91
        1
 62
     0
 92
       -2
340
14
 93
        0
 40
0.045
309
GRIDFORMAT_END
 95
        4
302
GRIDFORMAT
  1
GRIDFORMAT_BEGIN
 90
        0
 91
        1
 62
     0
 92
       -2
340
14
 93
        0
 40
0.045
309
GRIDFORMAT_END
 95
        8
302
GRIDFORMAT
  1
GRIDFORMAT_BEGIN
 90
        0
 91
        1
 62
     0
 92
       -2
340
14
 93
        0
 40
0.045
309
GRIDFORMAT_END
 95
       16
302
GRIDFORMAT
  1
GRIDFORMAT_BEGIN
 90
        0
 91
        1
 62
     0
 92
       -2
340
14
 93
        0
 40
0.045
309
GRIDFORMAT_END
 95
       32
302
GRIDFORMAT
  1
GRIDFORMAT_BEGIN
 90
        0
 91
        1
 62
     0
 92
       -2
340
14
 93
        0
 40
0.045
309
GRIDFORMAT_END
309
TABLEFORMAT_END
  1
CELLSTYLE_BEGIN
 90
        2
 91
        1
300
_HEADER
309
CELLSTYLE_END
300
CELLSTYLE
  1
TABLEFORMAT_BEGIN
 90
        5
170
     1
 91
        0
 92
        0
 62
   257
 93
        1
300
CONTENTFORMAT
  1
CONTENTFORMAT_BEGIN
 90
        0
 91
        0
 92
        4
 93
        0
300

 40
0.0
140
1.0
 94
        2
 62
     0
340
11
144
0.18
309
CONTENTFORMAT_END
171
     1
301
MARGIN
  1
CELLMARGIN_BEGIN
 40
0.06
 40
0.06
 40
0.06
 40
0.06
 40
0.06
 40
0.06
309
CELLMARGIN_END
 94
        6
 95
        1
302
GRIDFORMAT
  1
GRIDFORMAT_BEGIN
 90
        0
 91
        1
 62
     0
 92
       -2
340
14
 93
        0
 40
0.045
309
GRIDFORMAT_END
 95
        2
302
GRIDFORMAT
  1
GRIDFORMAT_BEGIN
 90
        0
 91
        1
 62
     0
 92
       -2
340
14
 93
        0
 40
0.045
309
GRIDFORMAT_END
 95
        4
302
GRIDFORMAT
  1
GRIDFORMAT_BEGIN
 90
        0
 91
        1
 62
     0
 92
       -2
340
14
 93
        0
 40
0.045
309
GRIDFORMAT_END
 95
        8
302
GRIDFORMAT
  1
GRIDFORMAT_BEGIN
 90
        0
 91
        1
 62
     0
 92
       -2
340
14
 93
        0
 40
0.045
309
GRIDFORMAT_END
 95
       16
302
GRIDFORMAT
  1
GRIDFORMAT_BEGIN
 90
        0
 91
        1
 62
     0
 92
       -2
340
14
 93
        0
 40
0.045
309
GRIDFORMAT_END
 95
       32
302
GRIDFORMAT
  1
GRIDFORMAT_BEGIN
 90
        0
 91
        1
 62
     0
 92
       -2
340
14
 93
        0
 40
0.045
309
GRIDFORMAT_END
309
TABLEFORMAT_END
  1
CELLSTYLE_BEGIN
 90
        3
 91
        2
300
_DATA
309
CELLSTYLE_END
  0
XRECORD
  5
310
102
{ACAD_REACTORS
330
30F
102
}
330
30F
100
AcDbXrecord
280
     1
102
ACAD_ROUNDTRIP_PRE2007_TABLESTYLE
 90
        4
 91
        0
  1

 92
        4
 93
        0
  2

 94
        4
 95
        0
  3

  0
XRECORD
  5
2E2
102
{ACAD_REACTORS
330
2E1
102
}
330
2E1
100
AcDbXrecord
280
     1
102
RTVSPropertyOp0
 70
     1
102
RTVSPropertyOp1
 70
     1
102
RTVSPropertyOp2
 70
     1
102
RTVSPropertyOp3
 70
     1
102
RTVSPropertyOp4
 70
     1
102
RTVSPropertyOp5
 70
     1
102
RTVSPropertyOp6
 70
     1
102
RTVSPropertyOp7
 70
     1
102
RTVSPropertyOp8
 70
     1
102
RTVSPropertyOp9
 70
     1
102
RTVSPropertyOp10
 70
     1
102
RTVSPropertyOp11
 70
     1
102
RTVSPropertyOp12
 70
     1
102
RTVSPropertyOp13
 70
     1
102
RTVSPropertyOp14
 70
     1
102
RTVSPropertyOp15
 70
     1
102
RTVSPropertyOp16
 70
     1
102
RTVSPropertyOp17
 70
     1
102
RTVSPropertyOp18
 70
     1
102
RTVSPropertyOp19
 70
     1
102
RTVSPropertyOp20
 70
     1
102
RTVSPropertyOp21
 70
     1
102
RTVSPropertyOp22
 70
     1
102
RTVSPropertyOp23
 70
     1
102
RTVSPropertyOp24
 70
     1
102
RTVSPropertyOp25
 70
     1
102
RTVSPropertyOp26
 70
     1
102
RTVSPropertyOp27
 70
     1
102
RTVSPropertyOp28
 70
     1
102
RTVSPropertyOp29
 70
     1
102
RTVSPropertyOp30
 70
     1
102
RTVSPropertyOp31
 70
     1
102
RTVSPropertyOp32
 70
     1
102
RTVSPropertyOp33
 70
     1
102
RTVSPropertyOp34
 70
     1
102
RTVSPropertyOp35
 70
     1
102
RTVSPropertyOp36
 70
     1
102
RTVSPropertyOp37
 70
     1
102
RTVSPropertyOp38
 70
     1
102
RTVSPropertyOp39
 70
     1
102
RTVSPropertyOp40
 70
     1
102
RTVSPropertyOp41
 70
     1
102
RTVSPropertyOp42
 70
     1
102
RTVSPropertyOp43
 70
     1
102
RTVSPropertyOp44
 70
     1
102
RTVSPropertyOp45
 70
     1
102
RTVSPropertyOp46
 70
     1
102
RTVSPropertyOp47
 70
     1
102
RTVSPropertyOp48
 70
     1
102
RTVSPropertyOp49
 70
     1
102
RTVSPropertyOp50
 70
     1
102
RTVSPropertyOp51
 70
     0
102
RTVSPropertyOp52
 70
     0
102
RTVSPropertyOp53
 70
     1
102
RTVSPropertyOp54
 70
     1
102
RTVSPropertyOp55
 70
     1
102
RTVSPropertyOp56
 70
     1
102
RTVSPropertyOp57
 70
     1
102
RTVSPost2010Prop28
280
     1
102
RTVSPost2010PropOp28
 70
     1
102
RTVSPost2010Prop29
280
     1
102
RTVSPost2010PropOp29
 70
     1
102
RTVSPost2010Prop30
280
     0
102
RTVSPost2010PropOp30
 70
     1
102
RTVSPost2010Prop31
280
     0
102
RTVSPost2010PropOp31
 70
     1
102
RTVSPost2010Prop32
280
     0
102
RTVSPost2010PropOp32
 70
     1
102
RTVSPost2010Prop33
280
     0
102
RTVSPost2010PropOp33
 70
     1
102
RTVSPost2010Prop34
280
     0
102
RTVSPost2010PropOp34
 70
     1
102
RTVSPost2010Prop35
280
     0
102
RTVSPost2010PropOp35
 70
     1
102
RTVSPost2010Prop36
280
     0
102
RTVSPost2010PropOp36
 70
     1
102
RTVSPost2010Prop37
 90
       50
102
RTVSPost2010PropOp37
 70
     1
102
RTVSPost2010Prop38
140
0.0
102
RTVSPost2010PropOp38
 70
     1
102
RTVSPost2010Prop39
140
1.0
102
RTVSPost2010PropOp39
 70
     1
102
RTVSPost2010Prop40
 90
        0
102
RTVSPost2010PropOp40
 70
     1
102
RTVSPost2010Prop41ColorIndex
 90
       18
102
RTVSPost2010Prop41ColorRGB
 90
        0
102
RTVSPost2010PropOp41
 70
     1
102
RTVSPost2010Prop42
 90
       50
102
RTVSPost2010PropOp42
 70
     1
102
RTVSPost2010Prop43
 90
        3
102
RTVSPost2010PropOp43
 70
     1
102
RTVSPost2010Prop44ColorIndex
 90
        5
102
RTVSPost2010Prop44ColorRGB
 90
      255
102
RTVSPost2010PropOp44
 70
     1
102
RTVSPost2010Prop45
280
     0
102
RTVSPost2010PropOp45
 70
     1
102
RTVSPost2010Prop46
 90
       50
102
RTVSPost2010PropOp46
 70
     1
102
RTVSPost2010Prop47
 90
       50
102
RTVSPost2010PropOp47
 70
     1
102
RTVSPost2010Prop48
 90
       50
102
RTVSPost2010PropOp48
 70
     1
102
RTVSPost2010Prop49
280
     0
102
RTVSPost2010PropOp49
 70
     1
102
RTVSPost2010Prop50
 90
       50
102
RTVSPost2010PropOp50
 70
     1
102
RTVSPost2010Prop51ColorIndex
 90
      256
102
RTVSPost2010Prop51ColorRGB
 90
-16777216
102
RTVSPost2010PropOp51
 70
     0
102
RTVSPost2010Prop52
140
1.0
102
RTVSPost2010PropOp52
 70
     0
102
RTVSPost2010Prop53
 90
        2
102
RTVSPost2010PropOp53
 70
     1
102
RTVSPost2010Prop54
  1
strokes_ogs.tif
102
RTVSPost2010PropOp54
 70
     1
102
RTVSPost2010Prop55
280
     0
102
RTVSPost2010PropOp55
 70
     1
102
RTVSPost2010Prop56
140
1.0
102
RTVSPost2010PropOp56
 70
     1
102
RTVSPost2010Prop57
140
1.0
102
RTVSPost2010PropOp57
 70
     1
  0
XRECORD
  5
2E8
102
{ACAD_REACTORS
330
2E7
102
}
330
2E7
100
AcDbXrecord
280
     1
102
RTVSPropertyOp0
 70
     1
102
RTVSPropertyOp1
 70
     1
102
RTVSPropertyOp2
 70
     1
102
RTVSPropertyOp3
 70
     1
102
RTVSPropertyOp4
 70
     1
102
RTVSPropertyOp5
 70
     1
102
RTVSPropertyOp6
 70
     1
102
RTVSPropertyOp7
 70
     1
102
RTVSPropertyOp8
 70
     1
102
RTVSPropertyOp9
 70
     1
102
RTVSPropertyOp10
 70
     1
102
RTVSPropertyOp11
 70
     1
102
RTVSPropertyOp12
 70
     1
102
RTVSPropertyOp13
 70
     1
102
RTVSPropertyOp14
 70
     1
102
RTVSPropertyOp15
 70
     1
102
RTVSPropertyOp16
 70
     1
102
RTVSPropertyOp17
 70
     1
102
RTVSPropertyOp18
 70
     1
102
RTVSPropertyOp19
 70
     1
102
RTVSPropertyOp20
 70
     1
102
RTVSPropertyOp21
 70
     1
102
RTVSPropertyOp22
 70
     1
102
RTVSPropertyOp23
 70
     1
102
RTVSPropertyOp24
 70
     1
102
RTVSPropertyOp25
 70
     1
102
RTVSPropertyOp26
 70
     1
102
RTVSPropertyOp27
 70
     1
102
RTVSPropertyOp28
 70
     1
102
RTVSPropertyOp29
 70
     1
102
RTVSPropertyOp30
 70
     1
102
RTVSPropertyOp31
 70
     1
102
RTVSPropertyOp32
 70
     1
102
RTVSPropertyOp33
 70
     1
102
RTVSPropertyOp34
 70
     1
102
RTVSPropertyOp35
 70
     1
102
RTVSPropertyOp36
 70
     1
102
RTVSPropertyOp37
 70
     1
102
RTVSPropertyOp38
 70
     1
102
RTVSPropertyOp39
 70
     1
102
RTVSPropertyOp40
 70
     1
102
RTVSPropertyOp41
 70
     1
102
RTVSPropertyOp42
 70
     1
102
RTVSPropertyOp43
 70
     1
102
RTVSPropertyOp44
 70
     1
102
RTVSPropertyOp45
 70
     1
102
RTVSPropertyOp46
 70
     1
102
RTVSPropertyOp47
 70
     1
102
RTVSPropertyOp48
 70
     1
102
RTVSPropertyOp49
 70
     1
102
RTVSPropertyOp50
 70
     1
102
RTVSPropertyOp51
 70
     0
102
RTVSPropertyOp52
 70
     0
102
RTVSPropertyOp53
 70
     1
102
RTVSPropertyOp54
 70
     1
102
RTVSPropertyOp55
 70
     1
102
RTVSPropertyOp56
 70
     1
102
RTVSPropertyOp57
 70
     1
102
RTVSPost2010Prop28
280
     0
102
RTVSPost2010PropOp28
 70
     1
102
RTVSPost2010Prop29
280
     1
102
RTVSPost2010PropOp29
 70
     1
102
RTVSPost2010Prop30
280
     1
102
RTVSPost2010PropOp30
 70
     1
102
RTVSPost2010Prop31
280
     0
102
RTVSPost2010PropOp31
 70
     1
102
RTVSPost2010Prop32
280
     0
102
RTVSPost2010PropOp32
 70
     1
102
RTVSPost2010Prop33
280
     0
102
RTVSPost2010PropOp33
 70
     1
102
RTVSPost2010Prop34
280
     0
102
RTVSPost2010PropOp34
 70
     1
102
RTVSPost2010Prop35
280
     0
102
RTVSPost2010PropOp35
 70
     1
102
RTVSPost2010Prop36
280
     0
102
RTVSPost2010PropOp36
 70
     1
102
RTVSPost2010Prop37
 90
       50
102
RTVSPost2010PropOp37
 70
     1
102
RTVSPost2010Prop38
140
0.0
102
RTVSPost2010PropOp38
 70
     1
102
RTVSPost2010Prop39
140
1.0
102
RTVSPost2010PropOp39
 70
     1
102
RTVSPost2010Prop40
 90
        0
102
RTVSPost2010PropOp40
 70
     1
102
RTVSPost2010Prop41ColorIndex
 90
       18
102
RTVSPost2010Prop41ColorRGB
 90
        0
102
RTVSPost2010PropOp41
 70
     1
102
RTVSPost2010Prop42
 90
       50
102
RTVSPost2010PropOp42
 70
     1
102
RTVSPost2010Prop43
 90
        3
102
RTVSPost2010PropOp43
 70
     1
102
RTVSPost2010Prop44ColorIndex
 90
        5
102
RTVSPost2010Prop44ColorRGB
 90
      255
102
RTVSPost2010PropOp44
 70
     1
102
RTVSPost2010Prop45
280
     0
102
RTVSPost2010PropOp45
 70
     1
102
RTVSPost2010Prop46
 90
       50
102
RTVSPost2010PropOp46
 70
     1
102
RTVSPost2010Prop47
 90
       50
102
RTVSPost2010PropOp47
 70
     1
102
RTVSPost2010Prop48
 90
       50
102
RTVSPost2010PropOp48
 70
     1
102
RTVSPost2010Prop49
280
     0
102
RTVSPost2010PropOp49
 70
     1
102
RTVSPost2010Prop50
 90
       50
102
RTVSPost2010PropOp50
 70
     1
102
RTVSPost2010Prop51ColorIndex
 90
      256
102
RTVSPost2010Prop51ColorRGB
 90
-16777216
102
RTVSPost2010PropOp51
 70
     0
102
RTVSPost2010Prop52
140
1.0
102
RTVSPost2010PropOp52
 70
     0
102
RTVSPost2010Prop53
 90
        2
102
RTVSPost2010PropOp53
 70
     1
102
RTVSPost2010Prop54
  1
strokes_ogs.tif
102
RTVSPost2010PropOp54
 70
     1
102
RTVSPost2010Prop55
280
     0
102
RTVSPost2010PropOp55
 70
     1
102
RTVSPost2010Prop56
140
1.0
102
RTVSPost2010PropOp56
 70
     1
102
RTVSPost2010Prop57
140
1.0
102
RTVSPost2010PropOp57
 70
     1
  0
XRECORD
  5
2F0
102
{ACAD_REACTORS
330
2EF
102
}
330
2EF
100
AcDbXrecord
280
     1
102
RTVSPropertyOp0
 70
     1
102
RTVSPropertyOp1
 70
     1
102
RTVSPropertyOp2
 70
     1
102
RTVSPropertyOp3
 70
     1
102
RTVSPropertyOp4
 70
     1
102
RTVSPropertyOp5
 70
     1
102
RTVSPropertyOp6
 70
     1
102
RTVSPropertyOp7
 70
     1
102
RTVSPropertyOp8
 70
     1
102
RTVSPropertyOp9
 70
     1
102
RTVSPropertyOp10
 70
     1
102
RTVSPropertyOp11
 70
     1
102
RTVSPropertyOp12
 70
     1
102
RTVSPropertyOp13
 70
     1
102
RTVSPropertyOp14
 70
     1
102
RTVSPropertyOp15
 70
     1
102
RTVSPropertyOp16
 70
     1
102
RTVSPropertyOp17
 70
     1
102
RTVSPropertyOp18
 70
     1
102
RTVSPropertyOp19
 70
     1
102
RTVSPropertyOp20
 70
     1
102
RTVSPropertyOp21
 70
     1
102
RTVSPropertyOp22
 70
     1
102
RTVSPropertyOp23
 70
     1
102
RTVSPropertyOp24
 70
     1
102
RTVSPropertyOp25
 70
     1
102
RTVSPropertyOp26
 70
     1
102
RTVSPropertyOp27
 70
     1
102
RTVSPropertyOp28
 70
     1
102
RTVSPropertyOp29
 70
     1
102
RTVSPropertyOp30
 70
     1
102
RTVSPropertyOp31
 70
     1
102
RTVSPropertyOp32
 70
     1
102
RTVSPropertyOp33
 70
     1
102
RTVSPropertyOp34
 70
     1
102
RTVSPropertyOp35
 70
     1
102
RTVSPropertyOp36
 70
     1
102
RTVSPropertyOp37
 70
     1
102
RTVSPropertyOp38
 70
     1
102
RTVSPropertyOp39
 70
     1
102
RTVSPropertyOp40
 70
     1
102
RTVSPropertyOp41
 70
     1
102
RTVSPropertyOp42
 70
     1
102
RTVSPropertyOp43
 70
     1
102
RTVSPropertyOp44
 70
     1
102
RTVSPropertyOp45
 70
     1
102
RTVSPropertyOp46
 70
     1
102
RTVSPropertyOp47
 70
     1
102
RTVSPropertyOp48
 70
     1
102
RTVSPropertyOp49
 70
     1
102
RTVSPropertyOp50
 70
     1
102
RTVSPropertyOp51
 70
     0
102
RTVSPropertyOp52
 70
     0
102
RTVSPropertyOp53
 70
     1
102
RTVSPropertyOp54
 70
     1
102
RTVSPropertyOp55
 70
     1
102
RTVSPropertyOp56
 70
     1
102
RTVSPropertyOp57
 70
     1
102
RTVSPost2010Prop28
280
     0
102
RTVSPost2010PropOp28
 70
     1
102
RTVSPost2010Prop29
280
     1
102
RTVSPost2010PropOp29
 70
     1
102
RTVSPost2010Prop30
280
     1
102
RTVSPost2010PropOp30
 70
     1
102
RTVSPost2010Prop31
280
     0
102
RTVSPost2010PropOp31
 70
     1
102
RTVSPost2010Prop32
280
     0
102
RTVSPost2010PropOp32
 70
     1
102
RTVSPost2010Prop33
280
     0
102
RTVSPost2010PropOp33
 70
     1
102
RTVSPost2010Prop34
280
     0
102
RTVSPost2010PropOp34
 70
     1
102
RTVSPost2010Prop35
280
     0
102
RTVSPost2010PropOp35
 70
     1
102
RTVSPost2010Prop36
280
     0
102
RTVSPost2010PropOp36
 70
     1
102
RTVSPost2010Prop37
 90
       50
102
RTVSPost2010PropOp37
 70
     1
102
RTVSPost2010Prop38
140
0.0
102
RTVSPost2010PropOp38
 70
     1
102
RTVSPost2010Prop39
140
1.0
102
RTVSPost2010PropOp39
 70
     1
102
RTVSPost2010Prop40
 90
        0
102
RTVSPost2010PropOp40
 70
     1
102
RTVSPost2010Prop41ColorIndex
 90
       18
102
RTVSPost2010Prop41ColorRGB
 90
        0
102
RTVSPost2010PropOp41
 70
     1
102
RTVSPost2010Prop42
 90
       50
102
RTVSPost2010PropOp42
 70
     1
102
RTVSPost2010Prop43
 90
        3
102
RTVSPost2010PropOp43
 70
     1
102
RTVSPost2010Prop44ColorIndex
 90
        5
102
RTVSPost2010Prop44ColorRGB
 90
      255
102
RTVSPost2010PropOp44
 70
     1
102
RTVSPost2010Prop45
280
     0
102
RTVSPost2010PropOp45
 70
     1
102
RTVSPost2010Prop46
 90
       50
102
RTVSPost2010PropOp46
 70
     1
102
RTVSPost2010Prop47
 90
       50
102
RTVSPost2010PropOp47
 70
     1
102
RTVSPost2010Prop48
 90
       50
102
RTVSPost2010PropOp48
 70
     1
102
RTVSPost2010Prop49
280
     0
102
RTVSPost2010PropOp49
 70
     1
102
RTVSPost2010Prop50
 90
       50
102
RTVSPost2010PropOp50
 70
     1
102
RTVSPost2010Prop51ColorIndex
 90
      256
102
RTVSPost2010Prop51ColorRGB
 90
-16777216
102
RTVSPost2010PropOp51
 70
     0
102
RTVSPost2010Prop52
140
1.0
102
RTVSPost2010PropOp52
 70
     0
102
RTVSPost2010Prop53
 90
        2
102
RTVSPost2010PropOp53
 70
     1
102
RTVSPost2010Prop54
  1
strokes_ogs.tif
102
RTVSPost2010PropOp54
 70
     1
102
RTVSPost2010Prop55
280
     0
102
RTVSPost2010PropOp55
 70
     1
102
RTVSPost2010Prop56
140
1.0
102
RTVSPost2010PropOp56
 70
     1
102
RTVSPost2010Prop57
140
1.0
102
RTVSPost2010PropOp57
 70
     1
  0
XRECORD
  5
2F8
102
{ACAD_REACTORS
330
2F7
102
}
330
2F7
100
AcDbXrecord
280
     1
102
RTVSPropertyOp0
 70
     1
102
RTVSPropertyOp1
 70
     1
102
RTVSPropertyOp2
 70
     1
102
RTVSPropertyOp3
 70
     1
102
RTVSPropertyOp4
 70
     1
102
RTVSPropertyOp5
 70
     1
102
RTVSPropertyOp6
 70
     1
102
RTVSPropertyOp7
 70
     1
102
RTVSPropertyOp8
 70
     1
102
RTVSPropertyOp9
 70
     1
102
RTVSPropertyOp10
 70
     1
102
RTVSPropertyOp11
 70
     1
102
RTVSPropertyOp12
 70
     1
102
RTVSPropertyOp13
 70
     1
102
RTVSPropertyOp14
 70
     1
102
RTVSPropertyOp15
 70
     1
102
RTVSPropertyOp16
 70
     1
102
RTVSPropertyOp17
 70
     1
102
RTVSPropertyOp18
 70
     1
102
RTVSPropertyOp19
 70
     1
102
RTVSPropertyOp20
 70
     1
102
RTVSPropertyOp21
 70
     1
102
RTVSPropertyOp22
 70
     1
102
RTVSPropertyOp23
 70
     1
102
RTVSPropertyOp24
 70
     1
102
RTVSPropertyOp25
 70
     1
102
RTVSPropertyOp26
 70
     1
102
RTVSPropertyOp27
 70
     1
102
RTVSPropertyOp28
 70
     1
102
RTVSPropertyOp29
 70
     1
102
RTVSPropertyOp30
 70
     1
102
RTVSPropertyOp31
 70
     1
102
RTVSPropertyOp32
 70
     1
102
RTVSPropertyOp33
 70
     1
102
RTVSPropertyOp34
 70
     1
102
RTVSPropertyOp35
 70
     1
102
RTVSPropertyOp36
 70
     1
102
RTVSPropertyOp37
 70
     1
102
RTVSPropertyOp38
 70
     1
102
RTVSPropertyOp39
 70
     1
102
RTVSPropertyOp40
 70
     1
102
RTVSPropertyOp41
 70
     1
102
RTVSPropertyOp42
 70
     1
102
RTVSPropertyOp43
 70
     1
102
RTVSPropertyOp44
 70
     1
102
RTVSPropertyOp45
 70
     1
102
RTVSPropertyOp46
 70
     1
102
RTVSPropertyOp47
 70
     1
102
RTVSPropertyOp48
 70
     1
102
RTVSPropertyOp49
 70
     1
102
RTVSPropertyOp50
 70
     1
102
RTVSPropertyOp51
 70
     0
102
RTVSPropertyOp52
 70
     0
102
RTVSPropertyOp53
 70
     1
102
RTVSPropertyOp54
 70
     1
102
RTVSPropertyOp55
 70
     1
102
RTVSPropertyOp56
 70
     1
102
RTVSPropertyOp57
 70
     1
102
RTVSPost2010Prop28
280
     0
102
RTVSPost2010PropOp28
 70
     1
102
RTVSPost2010Prop29
280
     1
102
RTVSPost2010PropOp29
 70
     1
102
RTVSPost2010Prop30
280
     1
102
RTVSPost2010PropOp30
 70
     1
102
RTVSPost2010Prop31
280
     0
102
RTVSPost2010PropOp31
 70
     1
102
RTVSPost2010Prop32
280
     0
102
RTVSPost2010PropOp32
 70
     1
102
RTVSPost2010Prop33
280
     0
102
RTVSPost2010PropOp33
 70
     1
102
RTVSPost2010Prop34
280
     0
102
RTVSPost2010PropOp34
 70
     1
102
RTVSPost2010Prop35
280
     0
102
RTVSPost2010PropOp35
 70
     1
102
RTVSPost2010Prop36
280
     0
102
RTVSPost2010PropOp36
 70
     1
102
RTVSPost2010Prop37
 90
       50
102
RTVSPost2010PropOp37
 70
     1
102
RTVSPost2010Prop38
140
0.0
102
RTVSPost2010PropOp38
 70
     1
102
RTVSPost2010Prop39
140
1.0
102
RTVSPost2010PropOp39
 70
     1
102
RTVSPost2010Prop40
 90
        0
102
RTVSPost2010PropOp40
 70
     1
102
RTVSPost2010Prop41ColorIndex
 90
       18
102
RTVSPost2010Prop41ColorRGB
 90
        0
102
RTVSPost2010PropOp41
 70
     1
102
RTVSPost2010Prop42
 90
       50
102
RTVSPost2010PropOp42
 70
     1
102
RTVSPost2010Prop43
 90
        3
102
RTVSPost2010PropOp43
 70
     1
102
RTVSPost2010Prop44ColorIndex
 90
        5
102
RTVSPost2010Prop44ColorRGB
 90
      255
102
RTVSPost2010PropOp44
 70
     1
102
RTVSPost2010Prop45
280
     0
102
RTVSPost2010PropOp45
 70
     1
102
RTVSPost2010Prop46
 90
       50
102
RTVSPost2010PropOp46
 70
     1
102
RTVSPost2010Prop47
 90
       50
102
RTVSPost2010PropOp47
 70
     1
102
RTVSPost2010Prop48
 90
       50
102
RTVSPost2010PropOp48
 70
     1
102
RTVSPost2010Prop49
280
     0
102
RTVSPost2010PropOp49
 70
     1
102
RTVSPost2010Prop50
 90
       50
102
RTVSPost2010PropOp50
 70
     1
102
RTVSPost2010Prop51ColorIndex
 90
      256
102
RTVSPost2010Prop51ColorRGB
 90
-16777216
102
RTVSPost2010PropOp51
 70
     0
102
RTVSPost2010Prop52
140
1.0
102
RTVSPost2010PropOp52
 70
     0
102
RTVSPost2010Prop53
 90
        2
102
RTVSPost2010PropOp53
 70
     1
102
RTVSPost2010Prop54
  1
strokes_ogs.tif
102
RTVSPost2010PropOp54
 70
     1
102
RTVSPost2010Prop55
280
     0
102
RTVSPost2010PropOp55
 70
     1
102
RTVSPost2010Prop56
140
1.0
102
RTVSPost2010PropOp56
 70
     1
102
RTVSPost2010Prop57
140
1.0
102
RTVSPost2010PropOp57
 70
     1
  0
XRECORD
  5
2EC
102
{ACAD_REACTORS
330
2EB
102
}
330
2EB
100
AcDbXrecord
280
     1
102
RTVSPropertyOp0
 70
     1
102
RTVSPropertyOp1
 70
     1
102
RTVSPropertyOp2
 70
     1
102
RTVSPropertyOp3
 70
     1
102
RTVSPropertyOp4
 70
     1
102
RTVSPropertyOp5
 70
     1
102
RTVSPropertyOp6
 70
     1
102
RTVSPropertyOp7
 70
     1
102
RTVSPropertyOp8
 70
     1
102
RTVSPropertyOp9
 70
     1
102
RTVSPropertyOp10
 70
     1
102
RTVSPropertyOp11
 70
     1
102
RTVSPropertyOp12
 70
     1
102
RTVSPropertyOp13
 70
     1
102
RTVSPropertyOp14
 70
     1
102
RTVSPropertyOp15
 70
     1
102
RTVSPropertyOp16
 70
     1
102
RTVSPropertyOp17
 70
     1
102
RTVSPropertyOp18
 70
     1
102
RTVSPropertyOp19
 70
     1
102
RTVSPropertyOp20
 70
     1
102
RTVSPropertyOp21
 70
     1
102
RTVSPropertyOp22
 70
     1
102
RTVSPropertyOp23
 70
     1
102
RTVSPropertyOp24
 70
     1
102
RTVSPropertyOp25
 70
     1
102
RTVSPropertyOp26
 70
     1
102
RTVSPropertyOp27
 70
     1
102
RTVSPropertyOp28
 70
     1
102
RTVSPropertyOp29
 70
     1
102
RTVSPropertyOp30
 70
     1
102
RTVSPropertyOp31
 70
     1
102
RTVSPropertyOp32
 70
     1
102
RTVSPropertyOp33
 70
     1
102
RTVSPropertyOp34
 70
     1
102
RTVSPropertyOp35
 70
     1
102
RTVSPropertyOp36
 70
     1
102
RTVSPropertyOp37
 70
     1
102
RTVSPropertyOp38
 70
     1
102
RTVSPropertyOp39
 70
     1
102
RTVSPropertyOp40
 70
     1
102
RTVSPropertyOp41
 70
     1
102
RTVSPropertyOp42
 70
     1
102
RTVSPropertyOp43
 70
     1
102
RTVSPropertyOp44
 70
     1
102
RTVSPropertyOp45
 70
     1
102
RTVSPropertyOp46
 70
     1
102
RTVSPropertyOp47
 70
     1
102
RTVSPropertyOp48
 70
     1
102
RTVSPropertyOp49
 70
     1
102
RTVSPropertyOp50
 70
     1
102
RTVSPropertyOp51
 70
     0
102
RTVSPropertyOp52
 70
     0
102
RTVSPropertyOp53
 70
     1
102
RTVSPropertyOp54
 70
     1
102
RTVSPropertyOp55
 70
     1
102
RTVSPropertyOp56
 70
     1
102
RTVSPropertyOp57
 70
     1
102
RTVSPost2010Prop28
280
     0
102
RTVSPost2010PropOp28
 70
     1
102
RTVSPost2010Prop29
280
     1
102
RTVSPost2010PropOp29
 70
     1
102
RTVSPost2010Prop30
280
     1
102
RTVSPost2010PropOp30
 70
     1
102
RTVSPost2010Prop31
280
     0
102
RTVSPost2010PropOp31
 70
     1
102
RTVSPost2010Prop32
280
     0
102
RTVSPost2010PropOp32
 70
     1
102
RTVSPost2010Prop33
280
     0
102
RTVSPost2010PropOp33
 70
     1
102
RTVSPost2010Prop34
280
     0
102
RTVSPost2010PropOp34
 70
     1
102
RTVSPost2010Prop35
280
     0
102
RTVSPost2010PropOp35
 70
     1
102
RTVSPost2010Prop36
280
     0
102
RTVSPost2010PropOp36
 70
     1
102
RTVSPost2010Prop37
 90
       50
102
RTVSPost2010PropOp37
 70
     1
102
RTVSPost2010Prop38
140
0.0
102
RTVSPost2010PropOp38
 70
     1
102
RTVSPost2010Prop39
140
1.0
102
RTVSPost2010PropOp39
 70
     1
102
RTVSPost2010Prop40
 90
        0
102
RTVSPost2010PropOp40
 70
     1
102
RTVSPost2010Prop41ColorIndex
 90
       18
102
RTVSPost2010Prop41ColorRGB
 90
        0
102
RTVSPost2010PropOp41
 70
     1
102
RTVSPost2010Prop42
 90
       50
102
RTVSPost2010PropOp42
 70
     1
102
RTVSPost2010Prop43
 90
        3
102
RTVSPost2010PropOp43
 70
     1
102
RTVSPost2010Prop44ColorIndex
 90
        5
102
RTVSPost2010Prop44ColorRGB
 90
      255
102
RTVSPost2010PropOp44
 70
     1
102
RTVSPost2010Prop45
280
     0
102
RTVSPost2010PropOp45
 70
     1
102
RTVSPost2010Prop46
 90
       50
102
RTVSPost2010PropOp46
 70
     1
102
RTVSPost2010Prop47
 90
       50
102
RTVSPost2010PropOp47
 70
     1
102
RTVSPost2010Prop48
 90
       50
102
RTVSPost2010PropOp48
 70
     1
102
RTVSPost2010Prop49
280
     0
102
RTVSPost2010PropOp49
 70
     1
102
RTVSPost2010Prop50
 90
       50
102
RTVSPost2010PropOp50
 70
     1
102
RTVSPost2010Prop51ColorIndex
 90
      256
102
RTVSPost2010Prop51ColorRGB
 90
-16777216
102
RTVSPost2010PropOp51
 70
     0
102
RTVSPost2010Prop52
140
1.0
102
RTVSPost2010PropOp52
 70
     0
102
RTVSPost2010Prop53
 90
        2
102
RTVSPost2010PropOp53
 70
     1
102
RTVSPost2010Prop54
  1
strokes_ogs.tif
102
RTVSPost2010PropOp54
 70
     1
102
RTVSPost2010Prop55
280
     0
102
RTVSPost2010PropOp55
 70
     1
102
RTVSPost2010Prop56
140
1.0
102
RTVSPost2010PropOp56
 70
     1
102
RTVSPost2010Prop57
140
1.0
102
RTVSPost2010PropOp57
 70
     1
  0
XRECORD
  5
2EE
102
{ACAD_REACTORS
330
2ED
102
}
330
2ED
100
AcDbXrecord
280
     1
102
RTVSPropertyOp0
 70
     1
102
RTVSPropertyOp1
 70
     1
102
RTVSPropertyOp2
 70
     1
102
RTVSPropertyOp3
 70
     1
102
RTVSPropertyOp4
 70
     1
102
RTVSPropertyOp5
 70
     1
102
RTVSPropertyOp6
 70
     1
102
RTVSPropertyOp7
 70
     1
102
RTVSPropertyOp8
 70
     1
102
RTVSPropertyOp9
 70
     1
102
RTVSPropertyOp10
 70
     1
102
RTVSPropertyOp11
 70
     1
102
RTVSPropertyOp12
 70
     1
102
RTVSPropertyOp13
 70
     1
102
RTVSPropertyOp14
 70
     1
102
RTVSPropertyOp15
 70
     1
102
RTVSPropertyOp16
 70
     1
102
RTVSPropertyOp17
 70
     1
102
RTVSPropertyOp18
 70
     1
102
RTVSPropertyOp19
 70
     1
102
RTVSPropertyOp20
 70
     1
102
RTVSPropertyOp21
 70
     1
102
RTVSPropertyOp22
 70
     1
102
RTVSPropertyOp23
 70
     1
102
RTVSPropertyOp24
 70
     1
102
RTVSPropertyOp25
 70
     1
102
RTVSPropertyOp26
 70
     1
102
RTVSPropertyOp27
 70
     1
102
RTVSPropertyOp28
 70
     1
102
RTVSPropertyOp29
 70
     1
102
RTVSPropertyOp30
 70
     1
102
RTVSPropertyOp31
 70
     1
102
RTVSPropertyOp32
 70
     1
102
RTVSPropertyOp33
 70
     1
102
RTVSPropertyOp34
 70
     1
102
RTVSPropertyOp35
 70
     1
102
RTVSPropertyOp36
 70
     1
102
RTVSPropertyOp37
 70
     1
102
RTVSPropertyOp38
 70
     1
102
RTVSPropertyOp39
 70
     1
102
RTVSPropertyOp40
 70
     1
102
RTVSPropertyOp41
 70
     1
102
RTVSPropertyOp42
 70
     1
102
RTVSPropertyOp43
 70
     1
102
RTVSPropertyOp44
 70
     1
102
RTVSPropertyOp45
 70
     1
102
RTVSPropertyOp46
 70
     1
102
RTVSPropertyOp47
 70
     1
102
RTVSPropertyOp48
 70
     1
102
RTVSPropertyOp49
 70
     1
102
RTVSPropertyOp50
 70
     1
102
RTVSPropertyOp51
 70
     0
102
RTVSPropertyOp52
 70
     0
102
RTVSPropertyOp53
 70
     1
102
RTVSPropertyOp54
 70
     1
102
RTVSPropertyOp55
 70
     1
102
RTVSPropertyOp56
 70
     1
102
RTVSPropertyOp57
 70
     1
102
RTVSPost2010Prop28
280
     0
102
RTVSPost2010PropOp28
 70
     1
102
RTVSPost2010Prop29
280
     1
102
RTVSPost2010PropOp29
 70
     1
102
RTVSPost2010Prop30
280
     1
102
RTVSPost2010PropOp30
 70
     1
102
RTVSPost2010Prop31
280
     0
102
RTVSPost2010PropOp31
 70
     1
102
RTVSPost2010Prop32
280
     0
102
RTVSPost2010PropOp32
 70
     1
102
RTVSPost2010Prop33
280
     0
102
RTVSPost2010PropOp33
 70
     1
102
RTVSPost2010Prop34
280
     0
102
RTVSPost2010PropOp34
 70
     1
102
RTVSPost2010Prop35
280
     0
102
RTVSPost2010PropOp35
 70
     1
102
RTVSPost2010Prop36
280
     0
102
RTVSPost2010PropOp36
 70
     1
102
RTVSPost2010Prop37
 90
       50
102
RTVSPost2010PropOp37
 70
     1
102
RTVSPost2010Prop38
140
0.0
102
RTVSPost2010PropOp38
 70
     1
102
RTVSPost2010Prop39
140
1.0
102
RTVSPost2010PropOp39
 70
     1
102
RTVSPost2010Prop40
 90
        0
102
RTVSPost2010PropOp40
 70
     1
102
RTVSPost2010Prop41ColorIndex
 90
       18
102
RTVSPost2010Prop41ColorRGB
 90
        0
102
RTVSPost2010PropOp41
 70
     1
102
RTVSPost2010Prop42
 90
       50
102
RTVSPost2010PropOp42
 70
     1
102
RTVSPost2010Prop43
 90
        3
102
RTVSPost2010PropOp43
 70
     1
102
RTVSPost2010Prop44ColorIndex
 90
        5
102
RTVSPost2010Prop44ColorRGB
 90
      255
102
RTVSPost2010PropOp44
 70
     1
102
RTVSPost2010Prop45
280
     0
102
RTVSPost2010PropOp45
 70
     1
102
RTVSPost2010Prop46
 90
       50
102
RTVSPost2010PropOp46
 70
     1
102
RTVSPost2010Prop47
 90
       50
102
RTVSPost2010PropOp47
 70
     1
102
RTVSPost2010Prop48
 90
       50
102
RTVSPost2010PropOp48
 70
     1
102
RTVSPost2010Prop49
280
     0
102
RTVSPost2010PropOp49
 70
     1
102
RTVSPost2010Prop50
 90
       50
102
RTVSPost2010PropOp50
 70
     1
102
RTVSPost2010Prop51ColorIndex
 90
      256
102
RTVSPost2010Prop51ColorRGB
 90
-16777216
102
RTVSPost2010PropOp51
 70
     0
102
RTVSPost2010Prop52
140
1.0
102
RTVSPost2010PropOp52
 70
     0
102
RTVSPost2010Prop53
 90
        2
102
RTVSPost2010PropOp53
 70
     1
102
RTVSPost2010Prop54
  1
strokes_ogs.tif
102
RTVSPost2010PropOp54
 70
     1
102
RTVSPost2010Prop55
280
     0
102
RTVSPost2010PropOp55
 70
     1
102
RTVSPost2010Prop56
140
1.0
102
RTVSPost2010PropOp56
 70
     1
102
RTVSPost2010Prop57
140
1.0
102
RTVSPost2010PropOp57
 70
     1
  0
XRECORD
  5
2FE
102
{ACAD_REACTORS
330
2FD
102
}
330
2FD
100
AcDbXrecord
280
     1
102
RTVSPropertyOp0
 70
     0
102
RTVSPropertyOp1
 70
     0
102
RTVSPropertyOp2
 70
     0
102
RTVSPropertyOp3
 70
     0
102
RTVSPropertyOp4
 70
     0
102
RTVSPropertyOp5
 70
     0
102
RTVSPropertyOp6
 70
     0
102
RTVSPropertyOp7
 70
     0
102
RTVSPropertyOp8
 70
     0
102
RTVSPropertyOp9
 70
     0
102
RTVSPropertyOp10
 70
     0
102
RTVSPropertyOp11
 70
     0
102
RTVSPropertyOp12
 70
     0
102
RTVSPropertyOp13
 70
     0
102
RTVSPropertyOp14
 70
     2
102
RTVSPropertyOp15
 70
     0
102
RTVSPropertyOp16
 70
     0
102
RTVSPropertyOp17
 70
     0
102
RTVSPropertyOp18
 70
     0
102
RTVSPropertyOp19
 70
     0
102
RTVSPropertyOp20
 70
     0
102
RTVSPropertyOp21
 70
     0
102
RTVSPropertyOp22
 70
     0
102
RTVSPropertyOp23
 70
     0
102
RTVSPropertyOp24
 70
     0
102
RTVSPropertyOp25
 70
     0
102
RTVSPropertyOp26
 70
     0
102
RTVSPropertyOp27
 70
     0
102
RTVSPropertyOp28
 70
     0
102
RTVSPropertyOp29
 70
     0
102
RTVSPropertyOp30
 70
     0
102
RTVSPropertyOp31
 70
     0
102
RTVSPropertyOp32
 70
     0
102
RTVSPropertyOp33
 70
     0
102
RTVSPropertyOp34
 70
     0
102
RTVSPropertyOp35
 70
     0
102
RTVSPropertyOp36
 70
     0
102
RTVSPropertyOp37
 70
     0
102
RTVSPropertyOp38
 70
     0
102
RTVSPropertyOp39
 70
     0
102
RTVSPropertyOp40
 70
     0
102
RTVSPropertyOp41
 70
     0
102
RTVSPropertyOp42
 70
     0
102
RTVSPropertyOp43
 70
     0
102
RTVSPropertyOp44
 70
     0
102
RTVSPropertyOp45
 70
     0
102
RTVSPropertyOp46
 70
     0
102
RTVSPropertyOp47
 70
     0
102
RTVSPropertyOp48
 70
     0
102
RTVSPropertyOp49
 70
     0
102
RTVSPropertyOp50
 70
     0
102
RTVSPropertyOp51
 70
     0
102
RTVSPropertyOp52
 70
     0
102
RTVSPropertyOp53
 70
     0
102
RTVSPropertyOp54
 70
     0
102
RTVSPropertyOp55
 70
     0
102
RTVSPropertyOp56
 70
     0
102
RTVSPropertyOp57
 70
     0
102
RTVSPost2010Prop28
280
     0
102
RTVSPost2010PropOp28
 70
     0
102
RTVSPost2010Prop29
280
     1
102
RTVSPost2010PropOp29
 70
     0
102
RTVSPost2010Prop30
280
     1
102
RTVSPost2010PropOp30
 70
     0
102
RTVSPost2010Prop31
280
     0
102
RTVSPost2010PropOp31
 70
     0
102
RTVSPost2010Prop32
280
     0
102
RTVSPost2010PropOp32
 70
     0
102
RTVSPost2010Prop33
280
     0
102
RTVSPost2010PropOp33
 70
     0
102
RTVSPost2010Prop34
280
     0
102
RTVSPost2010PropOp34
 70
     0
102
RTVSPost2010Prop35
280
     0
102
RTVSPost2010PropOp35
 70
     0
102
RTVSPost2010Prop36
280
     0
102
RTVSPost2010PropOp36
 70
     0
102
RTVSPost2010Prop37
 90
       50
102
RTVSPost2010PropOp37
 70
     0
102
RTVSPost2010Prop38
140
0.0
102
RTVSPost2010PropOp38
 70
     0
102
RTVSPost2010Prop39
140
1.0
102
RTVSPost2010PropOp39
 70
     0
102
RTVSPost2010Prop40
 90
        0
102
RTVSPost2010PropOp40
 70
     0
102
RTVSPost2010Prop41ColorIndex
 90
       18
102
RTVSPost2010Prop41ColorRGB
 90
        0
102
RTVSPost2010PropOp41
 70
     0
102
RTVSPost2010Prop42
 90
       50
102
RTVSPost2010PropOp42
 70
     0
102
RTVSPost2010Prop43
 90
        3
102
RTVSPost2010PropOp43
 70
     0
102
RTVSPost2010Prop44ColorIndex
 90
        5
102
RTVSPost2010Prop44ColorRGB
 90
      255
102
RTVSPost2010PropOp44
 70
     0
102
RTVSPost2010Prop45
280
     0
102
RTVSPost2010PropOp45
 70
     0
102
RTVSPost2010Prop46
 90
       50
102
RTVSPost2010PropOp46
 70
     0
102
RTVSPost2010Prop47
 90
       50
102
RTVSPost2010PropOp47
 70
     0
102
RTVSPost2010Prop48
 90
       50
102
RTVSPost2010PropOp48
 70
     0
102
RTVSPost2010Prop49
280
     0
102
RTVSPost2010PropOp49
 70
     0
102
RTVSPost2010Prop50
 90
       50
102
RTVSPost2010PropOp50
 70
     0
102
RTVSPost2010Prop51ColorIndex
 90
      256
102
RTVSPost2010Prop51ColorRGB
 90
-16777216
102
RTVSPost2010PropOp51
 70
     0
102
RTVSPost2010Prop52
140
1.0
102
RTVSPost2010PropOp52
 70
     0
102
RTVSPost2010Prop53
 90
        2
102
RTVSPost2010PropOp53
 70
     0
102
RTVSPost2010Prop54
  1
strokes_ogs.tif
102
RTVSPost2010PropOp54
 70
     0
102
RTVSPost2010Prop55
280
     0
102
RTVSPost2010PropOp55
 70
     0
102
RTVSPost2010Prop56
140
1.0
102
RTVSPost2010PropOp56
 70
     0
102
RTVSPost2010Prop57
140
1.0
102
RTVSPost2010PropOp57
 70
     0
  0
XRECORD
  5
2F6
102
{ACAD_REACTORS
330
2F5
102
}
330
2F5
100
AcDbXrecord
280
     1
102
RTVSPropertyOp0
 70
     1
102
RTVSPropertyOp1
 70
     1
102
RTVSPropertyOp2
 70
     1
102
RTVSPropertyOp3
 70
     1
102
RTVSPropertyOp4
 70
     1
102
RTVSPropertyOp5
 70
     1
102
RTVSPropertyOp6
 70
     1
102
RTVSPropertyOp7
 70
     1
102
RTVSPropertyOp8
 70
     1
102
RTVSPropertyOp9
 70
     1
102
RTVSPropertyOp10
 70
     1
102
RTVSPropertyOp11
 70
     1
102
RTVSPropertyOp12
 70
     1
102
RTVSPropertyOp13
 70
     1
102
RTVSPropertyOp14
 70
     1
102
RTVSPropertyOp15
 70
     1
102
RTVSPropertyOp16
 70
     1
102
RTVSPropertyOp17
 70
     1
102
RTVSPropertyOp18
 70
     1
102
RTVSPropertyOp19
 70
     1
102
RTVSPropertyOp20
 70
     1
102
RTVSPropertyOp21
 70
     1
102
RTVSPropertyOp22
 70
     1
102
RTVSPropertyOp23
 70
     1
102
RTVSPropertyOp24
 70
     1
102
RTVSPropertyOp25
 70
     1
102
RTVSPropertyOp26
 70
     1
102
RTVSPropertyOp27
 70
     1
102
RTVSPropertyOp28
 70
     1
102
RTVSPropertyOp29
 70
     1
102
RTVSPropertyOp30
 70
     1
102
RTVSPropertyOp31
 70
     1
102
RTVSPropertyOp32
 70
     1
102
RTVSPropertyOp33
 70
     1
102
RTVSPropertyOp34
 70
     1
102
RTVSPropertyOp35
 70
     1
102
RTVSPropertyOp36
 70
     1
102
RTVSPropertyOp37
 70
     1
102
RTVSPropertyOp38
 70
     1
102
RTVSPropertyOp39
 70
     1
102
RTVSPropertyOp40
 70
     1
102
RTVSPropertyOp41
 70
     1
102
RTVSPropertyOp42
 70
     1
102
RTVSPropertyOp43
 70
     1
102
RTVSPropertyOp44
 70
     1
102
RTVSPropertyOp45
 70
     1
102
RTVSPropertyOp46
 70
     1
102
RTVSPropertyOp47
 70
     1
102
RTVSPropertyOp48
 70
     1
102
RTVSPropertyOp49
 70
     1
102
RTVSPropertyOp50
 70
     1
102
RTVSPropertyOp51
 70
     0
102
RTVSPropertyOp52
 70
     0
102
RTVSPropertyOp53
 70
     1
102
RTVSPropertyOp54
 70
     1
102
RTVSPropertyOp55
 70
     1
102
RTVSPropertyOp56
 70
     1
102
RTVSPropertyOp57
 70
     1
102
RTVSPost2010Prop28
280
     0
102
RTVSPost2010PropOp28
 70
     1
102
RTVSPost2010Prop29
280
     1
102
RTVSPost2010PropOp29
 70
     1
102
RTVSPost2010Prop30
280
     1
102
RTVSPost2010PropOp30
 70
     1
102
RTVSPost2010Prop31
280
     0
102
RTVSPost2010PropOp31
 70
     1
102
RTVSPost2010Prop32
280
     0
102
RTVSPost2010PropOp32
 70
     1
102
RTVSPost2010Prop33
280
     0
102
RTVSPost2010PropOp33
 70
     1
102
RTVSPost2010Prop34
280
     0
102
RTVSPost2010PropOp34
 70
     1
102
RTVSPost2010Prop35
280
     0
102
RTVSPost2010PropOp35
 70
     1
102
RTVSPost2010Prop36
280
     0
102
RTVSPost2010PropOp36
 70
     1
102
RTVSPost2010Prop37
 90
       50
102
RTVSPost2010PropOp37
 70
     1
102
RTVSPost2010Prop38
140
0.0
102
RTVSPost2010PropOp38
 70
     1
102
RTVSPost2010Prop39
140
1.0
102
RTVSPost2010PropOp39
 70
     1
102
RTVSPost2010Prop40
 90
        0
102
RTVSPost2010PropOp40
 70
     1
102
RTVSPost2010Prop41ColorIndex
 90
       18
102
RTVSPost2010Prop41ColorRGB
 90
        0
102
RTVSPost2010PropOp41
 70
     1
102
RTVSPost2010Prop42
 90
       50
102
RTVSPost2010PropOp42
 70
     1
102
RTVSPost2010Prop43
 90
        3
102
RTVSPost2010PropOp43
 70
     1
102
RTVSPost2010Prop44ColorIndex
 90
        5
102
RTVSPost2010Prop44ColorRGB
 90
      255
102
RTVSPost2010PropOp44
 70
     1
102
RTVSPost2010Prop45
280
     0
102
RTVSPost2010PropOp45
 70
     1
102
RTVSPost2010Prop46
 90
       50
102
RTVSPost2010PropOp46
 70
     1
102
RTVSPost2010Prop47
 90
       50
102
RTVSPost2010PropOp47
 70
     1
102
RTVSPost2010Prop48
 90
       50
102
RTVSPost2010PropOp48
 70
     1
102
RTVSPost2010Prop49
280
     0
102
RTVSPost2010PropOp49
 70
     1
102
RTVSPost2010Prop50
 90
       50
102
RTVSPost2010PropOp50
 70
     1
102
RTVSPost2010Prop51ColorIndex
 90
      256
102
RTVSPost2010Prop51ColorRGB
 90
-16777216
102
RTVSPost2010PropOp51
 70
     0
102
RTVSPost2010Prop52
140
1.0
102
RTVSPost2010PropOp52
 70
     0
102
RTVSPost2010Prop53
 90
        2
102
RTVSPost2010PropOp53
 70
     1
102
RTVSPost2010Prop54
  1
strokes_ogs.tif
102
RTVSPost2010PropOp54
 70
     1
102
RTVSPost2010Prop55
280
     0
102
RTVSPost2010PropOp55
 70
     1
102
RTVSPost2010Prop56
140
1.0
102
RTVSPost2010PropOp56
 70
     1
102
RTVSPost2010Prop57
140
1.0
102
RTVSPost2010PropOp57
 70
     1
  0
XRECORD
  5
2DA
102
{ACAD_REACTORS
330
2D9
102
}
330
2D9
100
AcDbXrecord
280
     1
102
RTVSPropertyOp0
 70
     1
102
RTVSPropertyOp1
 70
     1
102
RTVSPropertyOp2
 70
     1
102
RTVSPropertyOp3
 70
     1
102
RTVSPropertyOp4
 70
     1
102
RTVSPropertyOp5
 70
     1
102
RTVSPropertyOp6
 70
     1
102
RTVSPropertyOp7
 70
     1
102
RTVSPropertyOp8
 70
     1
102
RTVSPropertyOp9
 70
     1
102
RTVSPropertyOp10
 70
     1
102
RTVSPropertyOp11
 70
     1
102
RTVSPropertyOp12
 70
     1
102
RTVSPropertyOp13
 70
     1
102
RTVSPropertyOp14
 70
     1
102
RTVSPropertyOp15
 70
     1
102
RTVSPropertyOp16
 70
     1
102
RTVSPropertyOp17
 70
     1
102
RTVSPropertyOp18
 70
     1
102
RTVSPropertyOp19
 70
     1
102
RTVSPropertyOp20
 70
     1
102
RTVSPropertyOp21
 70
     1
102
RTVSPropertyOp22
 70
     1
102
RTVSPropertyOp23
 70
     1
102
RTVSPropertyOp24
 70
     1
102
RTVSPropertyOp25
 70
     1
102
RTVSPropertyOp26
 70
     1
102
RTVSPropertyOp27
 70
     1
102
RTVSPropertyOp28
 70
     1
102
RTVSPropertyOp29
 70
     1
102
RTVSPropertyOp30
 70
     1
102
RTVSPropertyOp31
 70
     1
102
RTVSPropertyOp32
 70
     1
102
RTVSPropertyOp33
 70
     1
102
RTVSPropertyOp34
 70
     1
102
RTVSPropertyOp35
 70
     1
102
RTVSPropertyOp36
 70
     1
102
RTVSPropertyOp37
 70
     1
102
RTVSPropertyOp38
 70
     1
102
RTVSPropertyOp39
 70
     1
102
RTVSPropertyOp40
 70
     1
102
RTVSPropertyOp41
 70
     1
102
RTVSPropertyOp42
 70
     1
102
RTVSPropertyOp43
 70
     1
102
RTVSPropertyOp44
 70
     1
102
RTVSPropertyOp45
 70
     1
102
RTVSPropertyOp46
 70
     1
102
RTVSPropertyOp47
 70
     1
102
RTVSPropertyOp48
 70
     1
102
RTVSPropertyOp49
 70
     1
102
RTVSPropertyOp50
 70
     1
102
RTVSPropertyOp51
 70
     0
102
RTVSPropertyOp52
 70
     0
102
RTVSPropertyOp53
 70
     1
102
RTVSPropertyOp54
 70
     1
102
RTVSPropertyOp55
 70
     1
102
RTVSPropertyOp56
 70
     1
102
RTVSPropertyOp57
 70
     1
102
RTVSPost2010Prop28
280
     0
102
RTVSPost2010PropOp28
 70
     1
102
RTVSPost2010Prop29
280
     1
102
RTVSPost2010PropOp29
 70
     1
102
RTVSPost2010Prop30
280
     1
102
RTVSPost2010PropOp30
 70
     1
102
RTVSPost2010Prop31
280
     0
102
RTVSPost2010PropOp31
 70
     1
102
RTVSPost2010Prop32
280
     0
102
RTVSPost2010PropOp32
 70
     1
102
RTVSPost2010Prop33
280
     0
102
RTVSPost2010PropOp33
 70
     1
102
RTVSPost2010Prop34
280
     0
102
RTVSPost2010PropOp34
 70
     1
102
RTVSPost2010Prop35
280
     0
102
RTVSPost2010PropOp35
 70
     1
102
RTVSPost2010Prop36
280
     0
102
RTVSPost2010PropOp36
 70
     1
102
RTVSPost2010Prop37
 90
       50
102
RTVSPost2010PropOp37
 70
     1
102
RTVSPost2010Prop38
140
0.0
102
RTVSPost2010PropOp38
 70
     1
102
RTVSPost2010Prop39
140
1.0
102
RTVSPost2010PropOp39
 70
     1
102
RTVSPost2010Prop40
 90
        0
102
RTVSPost2010PropOp40
 70
     1
102
RTVSPost2010Prop41ColorIndex
 90
       18
102
RTVSPost2010Prop41ColorRGB
 90
        0
102
RTVSPost2010PropOp41
 70
     1
102
RTVSPost2010Prop42
 90
       50
102
RTVSPost2010PropOp42
 70
     1
102
RTVSPost2010Prop43
 90
        3
102
RTVSPost2010PropOp43
 70
     1
102
RTVSPost2010Prop44ColorIndex
 90
        5
102
RTVSPost2010Prop44ColorRGB
 90
      255
102
RTVSPost2010PropOp44
 70
     1
102
RTVSPost2010Prop45
280
     0
102
RTVSPost2010PropOp45
 70
     1
102
RTVSPost2010Prop46
 90
       50
102
RTVSPost2010PropOp46
 70
     1
102
RTVSPost2010Prop47
 90
       50
102
RTVSPost2010PropOp47
 70
     1
102
RTVSPost2010Prop48
 90
       50
102
RTVSPost2010PropOp48
 70
     1
102
RTVSPost2010Prop49
280
     0
102
RTVSPost2010PropOp49
 70
     1
102
RTVSPost2010Prop50
 90
       50
102
RTVSPost2010PropOp50
 70
     1
102
RTVSPost2010Prop51ColorIndex
 90
      256
102
RTVSPost2010Prop51ColorRGB
 90
-16777216
102
RTVSPost2010PropOp51
 70
     0
102
RTVSPost2010Prop52
140
1.0
102
RTVSPost2010PropOp52
 70
     0
102
RTVSPost2010Prop53
 90
        2
102
RTVSPost2010PropOp53
 70
     1
102
RTVSPost2010Prop54
  1
strokes_ogs.tif
102
RTVSPost2010PropOp54
 70
     1
102
RTVSPost2010Prop55
280
     0
102
RTVSPost2010PropOp55
 70
     1
102
RTVSPost2010Prop56
140
1.0
102
RTVSPost2010PropOp56
 70
     1
102
RTVSPost2010Prop57
140
1.0
102
RTVSPost2010PropOp57
 70
     1
  0
XRECORD
  5
2DC
102
{ACAD_REACTORS
330
2DB
102
}
330
2DB
100
AcDbXrecord
280
     1
102
RTVSPropertyOp0
 70
     1
102
RTVSPropertyOp1
 70
     1
102
RTVSPropertyOp2
 70
     1
102
RTVSPropertyOp3
 70
     1
102
RTVSPropertyOp4
 70
     1
102
RTVSPropertyOp5
 70
     1
102
RTVSPropertyOp6
 70
     1
102
RTVSPropertyOp7
 70
     1
102
RTVSPropertyOp8
 70
     1
102
RTVSPropertyOp9
 70
     1
102
RTVSPropertyOp10
 70
     1
102
RTVSPropertyOp11
 70
     1
102
RTVSPropertyOp12
 70
     1
102
RTVSPropertyOp13
 70
     1
102
RTVSPropertyOp14
 70
     1
102
RTVSPropertyOp15
 70
     1
102
RTVSPropertyOp16
 70
     1
102
RTVSPropertyOp17
 70
     1
102
RTVSPropertyOp18
 70
     1
102
RTVSPropertyOp19
 70
     1
102
RTVSPropertyOp20
 70
     1
102
RTVSPropertyOp21
 70
     1
102
RTVSPropertyOp22
 70
     1
102
RTVSPropertyOp23
 70
     1
102
RTVSPropertyOp24
 70
     1
102
RTVSPropertyOp25
 70
     1
102
RTVSPropertyOp26
 70
     1
102
RTVSPropertyOp27
 70
     1
102
RTVSPropertyOp28
 70
     1
102
RTVSPropertyOp29
 70
     1
102
RTVSPropertyOp30
 70
     1
102
RTVSPropertyOp31
 70
     1
102
RTVSPropertyOp32
 70
     1
102
RTVSPropertyOp33
 70
     1
102
RTVSPropertyOp34
 70
     1
102
RTVSPropertyOp35
 70
     1
102
RTVSPropertyOp36
 70
     1
102
RTVSPropertyOp37
 70
     1
102
RTVSPropertyOp38
 70
     1
102
RTVSPropertyOp39
 70
     1
102
RTVSPropertyOp40
 70
     1
102
RTVSPropertyOp41
 70
     1
102
RTVSPropertyOp42
 70
     1
102
RTVSPropertyOp43
 70
     1
102
RTVSPropertyOp44
 70
     1
102
RTVSPropertyOp45
 70
     1
102
RTVSPropertyOp46
 70
     1
102
RTVSPropertyOp47
 70
     1
102
RTVSPropertyOp48
 70
     1
102
RTVSPropertyOp49
 70
     1
102
RTVSPropertyOp50
 70
     1
102
RTVSPropertyOp51
 70
     0
102
RTVSPropertyOp52
 70
     0
102
RTVSPropertyOp53
 70
     1
102
RTVSPropertyOp54
 70
     1
102
RTVSPropertyOp55
 70
     1
102
RTVSPropertyOp56
 70
     1
102
RTVSPropertyOp57
 70
     1
102
RTVSPost2010Prop28
280
     0
102
RTVSPost2010PropOp28
 70
     1
102
RTVSPost2010Prop29
280
     1
102
RTVSPost2010PropOp29
 70
     1
102
RTVSPost2010Prop30
280
     1
102
RTVSPost2010PropOp30
 70
     1
102
RTVSPost2010Prop31
280
     0
102
RTVSPost2010PropOp31
 70
     1
102
RTVSPost2010Prop32
280
     0
102
RTVSPost2010PropOp32
 70
     1
102
RTVSPost2010Prop33
280
     0
102
RTVSPost2010PropOp33
 70
     1
102
RTVSPost2010Prop34
280
     0
102
RTVSPost2010PropOp34
 70
     1
102
RTVSPost2010Prop35
280
     0
102
RTVSPost2010PropOp35
 70
     1
102
RTVSPost2010Prop36
280
     0
102
RTVSPost2010PropOp36
 70
     1
102
RTVSPost2010Prop37
 90
       50
102
RTVSPost2010PropOp37
 70
     1
102
RTVSPost2010Prop38
140
0.0
102
RTVSPost2010PropOp38
 70
     1
102
RTVSPost2010Prop39
140
1.0
102
RTVSPost2010PropOp39
 70
     1
102
RTVSPost2010Prop40
 90
        0
102
RTVSPost2010PropOp40
 70
     1
102
RTVSPost2010Prop41ColorIndex
 90
       18
102
RTVSPost2010Prop41ColorRGB
 90
        0
102
RTVSPost2010PropOp41
 70
     1
102
RTVSPost2010Prop42
 90
       50
102
RTVSPost2010PropOp42
 70
     1
102
RTVSPost2010Prop43
 90
        3
102
RTVSPost2010PropOp43
 70
     1
102
RTVSPost2010Prop44ColorIndex
 90
        5
102
RTVSPost2010Prop44ColorRGB
 90
      255
102
RTVSPost2010PropOp44
 70
     1
102
RTVSPost2010Prop45
280
     0
102
RTVSPost2010PropOp45
 70
     1
102
RTVSPost2010Prop46
 90
       50
102
RTVSPost2010PropOp46
 70
     1
102
RTVSPost2010Prop47
 90
       50
102
RTVSPost2010PropOp47
 70
     1
102
RTVSPost2010Prop48
 90
       50
102
RTVSPost2010PropOp48
 70
     1
102
RTVSPost2010Prop49
280
     0
102
RTVSPost2010PropOp49
 70
     1
102
RTVSPost2010Prop50
 90
       50
102
RTVSPost2010PropOp50
 70
     1
102
RTVSPost2010Prop51ColorIndex
 90
      256
102
RTVSPost2010Prop51ColorRGB
 90
-16777216
102
RTVSPost2010PropOp51
 70
     0
102
RTVSPost2010Prop52
140
1.0
102
RTVSPost2010PropOp52
 70
     0
102
RTVSPost2010Prop53
 90
        2
102
RTVSPost2010PropOp53
 70
     1
102
RTVSPost2010Prop54
  1
strokes_ogs.tif
102
RTVSPost2010PropOp54
 70
     1
102
RTVSPost2010Prop55
280
     0
102
RTVSPost2010PropOp55
 70
     1
102
RTVSPost2010Prop56
140
1.0
102
RTVSPost2010PropOp56
 70
     1
102
RTVSPost2010Prop57
140
1.0
102
RTVSPost2010PropOp57
 70
     1
  0
XRECORD
  5
2DE
102
{ACAD_REACTORS
330
2DD
102
}
330
2DD
100
AcDbXrecord
280
     1
102
RTVSPropertyOp0
 70
     1
102
RTVSPropertyOp1
 70
     1
102
RTVSPropertyOp2
 70
     1
102
RTVSPropertyOp3
 70
     1
102
RTVSPropertyOp4
 70
     1
102
RTVSPropertyOp5
 70
     1
102
RTVSPropertyOp6
 70
     1
102
RTVSPropertyOp7
 70
     1
102
RTVSPropertyOp8
 70
     1
102
RTVSPropertyOp9
 70
     1
102
RTVSPropertyOp10
 70
     1
102
RTVSPropertyOp11
 70
     1
102
RTVSPropertyOp12
 70
     1
102
RTVSPropertyOp13
 70
     1
102
RTVSPropertyOp14
 70
     1
102
RTVSPropertyOp15
 70
     1
102
RTVSPropertyOp16
 70
     1
102
RTVSPropertyOp17
 70
     1
102
RTVSPropertyOp18
 70
     1
102
RTVSPropertyOp19
 70
     1
102
RTVSPropertyOp20
 70
     1
102
RTVSPropertyOp21
 70
     1
102
RTVSPropertyOp22
 70
     1
102
RTVSPropertyOp23
 70
     1
102
RTVSPropertyOp24
 70
     1
102
RTVSPropertyOp25
 70
     1
102
RTVSPropertyOp26
 70
     1
102
RTVSPropertyOp27
 70
     1
102
RTVSPropertyOp28
 70
     1
102
RTVSPropertyOp29
 70
     1
102
RTVSPropertyOp30
 70
     1
102
RTVSPropertyOp31
 70
     1
102
RTVSPropertyOp32
 70
     1
102
RTVSPropertyOp33
 70
     1
102
RTVSPropertyOp34
 70
     1
102
RTVSPropertyOp35
 70
     1
102
RTVSPropertyOp36
 70
     1
102
RTVSPropertyOp37
 70
     1
102
RTVSPropertyOp38
 70
     1
102
RTVSPropertyOp39
 70
     1
102
RTVSPropertyOp40
 70
     1
102
RTVSPropertyOp41
 70
     1
102
RTVSPropertyOp42
 70
     1
102
RTVSPropertyOp43
 70
     1
102
RTVSPropertyOp44
 70
     1
102
RTVSPropertyOp45
 70
     1
102
RTVSPropertyOp46
 70
     1
102
RTVSPropertyOp47
 70
     1
102
RTVSPropertyOp48
 70
     1
102
RTVSPropertyOp49
 70
     1
102
RTVSPropertyOp50
 70
     1
102
RTVSPropertyOp51
 70
     0
102
RTVSPropertyOp52
 70
     0
102
RTVSPropertyOp53
 70
     1
102
RTVSPropertyOp54
 70
     1
102
RTVSPropertyOp55
 70
     1
102
RTVSPropertyOp56
 70
     1
102
RTVSPropertyOp57
 70
     1
102
RTVSPost2010Prop28
280
     0
102
RTVSPost2010PropOp28
 70
     1
102
RTVSPost2010Prop29
280
     1
102
RTVSPost2010PropOp29
 70
     1
102
RTVSPost2010Prop30
280
     1
102
RTVSPost2010PropOp30
 70
     1
102
RTVSPost2010Prop31
280
     0
102
RTVSPost2010PropOp31
 70
     1
102
RTVSPost2010Prop32
280
     0
102
RTVSPost2010PropOp32
 70
     1
102
RTVSPost2010Prop33
280
     0
102
RTVSPost2010PropOp33
 70
     1
102
RTVSPost2010Prop34
280
     0
102
RTVSPost2010PropOp34
 70
     1
102
RTVSPost2010Prop35
280
     0
102
RTVSPost2010PropOp35
 70
     1
102
RTVSPost2010Prop36
280
     0
102
RTVSPost2010PropOp36
 70
     1
102
RTVSPost2010Prop37
 90
       50
102
RTVSPost2010PropOp37
 70
     1
102
RTVSPost2010Prop38
140
0.0
102
RTVSPost2010PropOp38
 70
     1
102
RTVSPost2010Prop39
140
1.0
102
RTVSPost2010PropOp39
 70
     1
102
RTVSPost2010Prop40
 90
        0
102
RTVSPost2010PropOp40
 70
     1
102
RTVSPost2010Prop41ColorIndex
 90
       18
102
RTVSPost2010Prop41ColorRGB
 90
        0
102
RTVSPost2010PropOp41
 70
     1
102
RTVSPost2010Prop42
 90
       50
102
RTVSPost2010PropOp42
 70
     1
102
RTVSPost2010Prop43
 90
        3
102
RTVSPost2010PropOp43
 70
     1
102
RTVSPost2010Prop44ColorIndex
 90
        5
102
RTVSPost2010Prop44ColorRGB
 90
      255
102
RTVSPost2010PropOp44
 70
     1
102
RTVSPost2010Prop45
280
     0
102
RTVSPost2010PropOp45
 70
     1
102
RTVSPost2010Prop46
 90
       50
102
RTVSPost2010PropOp46
 70
     1
102
RTVSPost2010Prop47
 90
       50
102
RTVSPost2010PropOp47
 70
     1
102
RTVSPost2010Prop48
 90
       50
102
RTVSPost2010PropOp48
 70
     1
102
RTVSPost2010Prop49
280
     0
102
RTVSPost2010PropOp49
 70
     1
102
RTVSPost2010Prop50
 90
       50
102
RTVSPost2010PropOp50
 70
     1
102
RTVSPost2010Prop51ColorIndex
 90
      256
102
RTVSPost2010Prop51ColorRGB
 90
-16777216
102
RTVSPost2010PropOp51
 70
     0
102
RTVSPost2010Prop52
140
1.0
102
RTVSPost2010PropOp52
 70
     0
102
RTVSPost2010Prop53
 90
        2
102
RTVSPost2010PropOp53
 70
     1
102
RTVSPost2010Prop54
  1
strokes_ogs.tif
102
RTVSPost2010PropOp54
 70
     1
102
RTVSPost2010Prop55
280
     0
102
RTVSPost2010PropOp55
 70
     1
102
RTVSPost2010Prop56
140
1.0
102
RTVSPost2010PropOp56
 70
     1
102
RTVSPost2010Prop57
140
1.0
102
RTVSPost2010PropOp57
 70
     1
  0
XRECORD
  5
2E0
102
{ACAD_REACTORS
330
2DF
102
}
330
2DF
100
AcDbXrecord
280
     1
102
RTVSPropertyOp0
 70
     1
102
RTVSPropertyOp1
 70
     1
102
RTVSPropertyOp2
 70
     1
102
RTVSPropertyOp3
 70
     1
102
RTVSPropertyOp4
 70
     1
102
RTVSPropertyOp5
 70
     1
102
RTVSPropertyOp6
 70
     1
102
RTVSPropertyOp7
 70
     1
102
RTVSPropertyOp8
 70
     1
102
RTVSPropertyOp9
 70
     1
102
RTVSPropertyOp10
 70
     1
102
RTVSPropertyOp11
 70
     1
102
RTVSPropertyOp12
 70
     1
102
RTVSPropertyOp13
 70
     1
102
RTVSPropertyOp14
 70
     1
102
RTVSPropertyOp15
 70
     1
102
RTVSPropertyOp16
 70
     1
102
RTVSPropertyOp17
 70
     1
102
RTVSPropertyOp18
 70
     1
102
RTVSPropertyOp19
 70
     1
102
RTVSPropertyOp20
 70
     1
102
RTVSPropertyOp21
 70
     1
102
RTVSPropertyOp22
 70
     1
102
RTVSPropertyOp23
 70
     1
102
RTVSPropertyOp24
 70
     1
102
RTVSPropertyOp25
 70
     1
102
RTVSPropertyOp26
 70
     1
102
RTVSPropertyOp27
 70
     1
102
RTVSPropertyOp28
 70
     1
102
RTVSPropertyOp29
 70
     1
102
RTVSPropertyOp30
 70
     1
102
RTVSPropertyOp31
 70
     1
102
RTVSPropertyOp32
 70
     1
102
RTVSPropertyOp33
 70
     1
102
RTVSPropertyOp34
 70
     1
102
RTVSPropertyOp35
 70
     1
102
RTVSPropertyOp36
 70
     1
102
RTVSPropertyOp37
 70
     1
102
RTVSPropertyOp38
 70
     1
102
RTVSPropertyOp39
 70
     1
102
RTVSPropertyOp40
 70
     1
102
RTVSPropertyOp41
 70
     1
102
RTVSPropertyOp42
 70
     1
102
RTVSPropertyOp43
 70
     1
102
RTVSPropertyOp44
 70
     1
102
RTVSPropertyOp45
 70
     1
102
RTVSPropertyOp46
 70
     1
102
RTVSPropertyOp47
 70
     1
102
RTVSPropertyOp48
 70
     1
102
RTVSPropertyOp49
 70
     1
102
RTVSPropertyOp50
 70
     1
102
RTVSPropertyOp51
 70
     0
102
RTVSPropertyOp52
 70
     0
102
RTVSPropertyOp53
 70
     1
102
RTVSPropertyOp54
 70
     1
102
RTVSPropertyOp55
 70
     1
102
RTVSPropertyOp56
 70
     1
102
RTVSPropertyOp57
 70
     1
102
RTVSPost2010Prop28
280
     0
102
RTVSPost2010PropOp28
 70
     1
102
RTVSPost2010Prop29
280
     1
102
RTVSPost2010PropOp29
 70
     1
102
RTVSPost2010Prop30
280
     1
102
RTVSPost2010PropOp30
 70
     1
102
RTVSPost2010Prop31
280
     0
102
RTVSPost2010PropOp31
 70
     1
102
RTVSPost2010Prop32
280
     0
102
RTVSPost2010PropOp32
 70
     1
102
RTVSPost2010Prop33
280
     0
102
RTVSPost2010PropOp33
 70
     1
102
RTVSPost2010Prop34
280
     0
102
RTVSPost2010PropOp34
 70
     1
102
RTVSPost2010Prop35
280
     0
102
RTVSPost2010PropOp35
 70
     1
102
RTVSPost2010Prop36
280
     0
102
RTVSPost2010PropOp36
 70
     1
102
RTVSPost2010Prop37
 90
       50
102
RTVSPost2010PropOp37
 70
     1
102
RTVSPost2010Prop38
140
0.0
102
RTVSPost2010PropOp38
 70
     1
102
RTVSPost2010Prop39
140
1.0
102
RTVSPost2010PropOp39
 70
     1
102
RTVSPost2010Prop40
 90
        0
102
RTVSPost2010PropOp40
 70
     1
102
RTVSPost2010Prop41ColorIndex
 90
       18
102
RTVSPost2010Prop41ColorRGB
 90
        0
102
RTVSPost2010PropOp41
 70
     1
102
RTVSPost2010Prop42
 90
       50
102
RTVSPost2010PropOp42
 70
     1
102
RTVSPost2010Prop43
 90
        3
102
RTVSPost2010PropOp43
 70
     1
102
RTVSPost2010Prop44ColorIndex
 90
        5
102
RTVSPost2010Prop44ColorRGB
 90
      255
102
RTVSPost2010PropOp44
 70
     1
102
RTVSPost2010Prop45
280
     0
102
RTVSPost2010PropOp45
 70
     1
102
RTVSPost2010Prop46
 90
       50
102
RTVSPost2010PropOp46
 70
     1
102
RTVSPost2010Prop47
 90
       50
102
RTVSPost2010PropOp47
 70
     1
102
RTVSPost2010Prop48
 90
       50
102
RTVSPost2010PropOp48
 70
     1
102
RTVSPost2010Prop49
280
     0
102
RTVSPost2010PropOp49
 70
     1
102
RTVSPost2010Prop50
 90
       50
102
RTVSPost2010PropOp50
 70
     1
102
RTVSPost2010Prop51ColorIndex
 90
      256
102
RTVSPost2010Prop51ColorRGB
 90
-16777216
102
RTVSPost2010PropOp51
 70
     0
102
RTVSPost2010Prop52
140
1.0
102
RTVSPost2010PropOp52
 70
     0
102
RTVSPost2010Prop53
 90
        2
102
RTVSPost2010PropOp53
 70
     1
102
RTVSPost2010Prop54
  1
strokes_ogs.tif
102
RTVSPost2010PropOp54
 70
     1
102
RTVSPost2010Prop55
280
     0
102
RTVSPost2010PropOp55
 70
     1
102
RTVSPost2010Prop56
140
1.0
102
RTVSPost2010PropOp56
 70
     1
102
RTVSPost2010Prop57
140
1.0
102
RTVSPost2010PropOp57
 70
     1
  0
XRECORD
  5
2E6
102
{ACAD_REACTORS
330
2E5
102
}
330
2E5
100
AcDbXrecord
280
     1
102
RTVSPropertyOp0
 70
     1
102
RTVSPropertyOp1
 70
     1
102
RTVSPropertyOp2
 70
     1
102
RTVSPropertyOp3
 70
     1
102
RTVSPropertyOp4
 70
     1
102
RTVSPropertyOp5
 70
     1
102
RTVSPropertyOp6
 70
     1
102
RTVSPropertyOp7
 70
     1
102
RTVSPropertyOp8
 70
     1
102
RTVSPropertyOp9
 70
     1
102
RTVSPropertyOp10
 70
     1
102
RTVSPropertyOp11
 70
     1
102
RTVSPropertyOp12
 70
     1
102
RTVSPropertyOp13
 70
     1
102
RTVSPropertyOp14
 70
     1
102
RTVSPropertyOp15
 70
     1
102
RTVSPropertyOp16
 70
     1
102
RTVSPropertyOp17
 70
     1
102
RTVSPropertyOp18
 70
     1
102
RTVSPropertyOp19
 70
     1
102
RTVSPropertyOp20
 70
     1
102
RTVSPropertyOp21
 70
     1
102
RTVSPropertyOp22
 70
     1
102
RTVSPropertyOp23
 70
     1
102
RTVSPropertyOp24
 70
     1
102
RTVSPropertyOp25
 70
     1
102
RTVSPropertyOp26
 70
     1
102
RTVSPropertyOp27
 70
     1
102
RTVSPropertyOp28
 70
     1
102
RTVSPropertyOp29
 70
     1
102
RTVSPropertyOp30
 70
     1
102
RTVSPropertyOp31
 70
     1
102
RTVSPropertyOp32
 70
     1
102
RTVSPropertyOp33
 70
     1
102
RTVSPropertyOp34
 70
     1
102
RTVSPropertyOp35
 70
     1
102
RTVSPropertyOp36
 70
     1
102
RTVSPropertyOp37
 70
     1
102
RTVSPropertyOp38
 70
     1
102
RTVSPropertyOp39
 70
     1
102
RTVSPropertyOp40
 70
     1
102
RTVSPropertyOp41
 70
     1
102
RTVSPropertyOp42
 70
     1
102
RTVSPropertyOp43
 70
     1
102
RTVSPropertyOp44
 70
     1
102
RTVSPropertyOp45
 70
     1
102
RTVSPropertyOp46
 70
     1
102
RTVSPropertyOp47
 70
     1
102
RTVSPropertyOp48
 70
     1
102
RTVSPropertyOp49
 70
     1
102
RTVSPropertyOp50
 70
     1
102
RTVSPropertyOp51
 70
     0
102
RTVSPropertyOp52
 70
     0
102
RTVSPropertyOp53
 70
     1
102
RTVSPropertyOp54
 70
     1
102
RTVSPropertyOp55
 70
     1
102
RTVSPropertyOp56
 70
     1
102
RTVSPropertyOp57
 70
     1
102
RTVSPost2010Prop28
280
     0
102
RTVSPost2010PropOp28
 70
     1
102
RTVSPost2010Prop29
280
     1
102
RTVSPost2010PropOp29
 70
     1
102
RTVSPost2010Prop30
280
     1
102
RTVSPost2010PropOp30
 70
     1
102
RTVSPost2010Prop31
280
     0
102
RTVSPost2010PropOp31
 70
     1
102
RTVSPost2010Prop32
280
     0
102
RTVSPost2010PropOp32
 70
     1
102
RTVSPost2010Prop33
280
     0
102
RTVSPost2010PropOp33
 70
     1
102
RTVSPost2010Prop34
280
     0
102
RTVSPost2010PropOp34
 70
     1
102
RTVSPost2010Prop35
280
     0
102
RTVSPost2010PropOp35
 70
     1
102
RTVSPost2010Prop36
280
     0
102
RTVSPost2010PropOp36
 70
     1
102
RTVSPost2010Prop37
 90
       50
102
RTVSPost2010PropOp37
 70
     1
102
RTVSPost2010Prop38
140
0.0
102
RTVSPost2010PropOp38
 70
     1
102
RTVSPost2010Prop39
140
1.0
102
RTVSPost2010PropOp39
 70
     1
102
RTVSPost2010Prop40
 90
        0
102
RTVSPost2010PropOp40
 70
     1
102
RTVSPost2010Prop41ColorIndex
 90
       18
102
RTVSPost2010Prop41ColorRGB
 90
        0
102
RTVSPost2010PropOp41
 70
     1
102
RTVSPost2010Prop42
 90
       50
102
RTVSPost2010PropOp42
 70
     1
102
RTVSPost2010Prop43
 90
        3
102
RTVSPost2010PropOp43
 70
     1
102
RTVSPost2010Prop44ColorIndex
 90
        5
102
RTVSPost2010Prop44ColorRGB
 90
      255
102
RTVSPost2010PropOp44
 70
     1
102
RTVSPost2010Prop45
280
     0
102
RTVSPost2010PropOp45
 70
     1
102
RTVSPost2010Prop46
 90
       50
102
RTVSPost2010PropOp46
 70
     1
102
RTVSPost2010Prop47
 90
       50
102
RTVSPost2010PropOp47
 70
     1
102
RTVSPost2010Prop48
 90
       50
102
RTVSPost2010PropOp48
 70
     1
102
RTVSPost2010Prop49
280
     0
102
RTVSPost2010PropOp49
 70
     1
102
RTVSPost2010Prop50
 90
       50
102
RTVSPost2010PropOp50
 70
     1
102
RTVSPost2010Prop51ColorIndex
 90
      256
102
RTVSPost2010Prop51ColorRGB
 90
-16777216
102
RTVSPost2010PropOp51
 70
     0
102
RTVSPost2010Prop52
140
1.0
102
RTVSPost2010PropOp52
 70
     0
102
RTVSPost2010Prop53
 90
        2
102
RTVSPost2010PropOp53
 70
     1
102
RTVSPost2010Prop54
  1
strokes_ogs.tif
102
RTVSPost2010PropOp54
 70
     1
102
RTVSPost2010Prop55
280
     0
102
RTVSPost2010PropOp55
 70
     1
102
RTVSPost2010Prop56
140
1.0
102
RTVSPost2010PropOp56
 70
     1
102
RTVSPost2010Prop57
140
1.0
102
RTVSPost2010PropOp57
 70
     1
  0
XRECORD
  5
2FA
102
{ACAD_REACTORS
330
2F9
102
}
330
2F9
100
AcDbXrecord
280
     1
102
RTVSPropertyOp0
 70
     0
102
RTVSPropertyOp1
 70
     0
102
RTVSPropertyOp2
 70
     0
102
RTVSPropertyOp3
 70
     0
102
RTVSPropertyOp4
 70
     0
102
RTVSPropertyOp5
 70
     0
102
RTVSPropertyOp6
 70
     0
102
RTVSPropertyOp7
 70
     0
102
RTVSPropertyOp8
 70
     0
102
RTVSPropertyOp9
 70
     0
102
RTVSPropertyOp10
 70
     0
102
RTVSPropertyOp11
 70
     0
102
RTVSPropertyOp12
 70
     0
102
RTVSPropertyOp13
 70
     0
102
RTVSPropertyOp14
 70
     2
102
RTVSPropertyOp15
 70
     0
102
RTVSPropertyOp16
 70
     0
102
RTVSPropertyOp17
 70
     0
102
RTVSPropertyOp18
 70
     0
102
RTVSPropertyOp19
 70
     0
102
RTVSPropertyOp20
 70
     0
102
RTVSPropertyOp21
 70
     0
102
RTVSPropertyOp22
 70
     0
102
RTVSPropertyOp23
 70
     0
102
RTVSPropertyOp24
 70
     0
102
RTVSPropertyOp25
 70
     0
102
RTVSPropertyOp26
 70
     0
102
RTVSPropertyOp27
 70
     0
102
RTVSPropertyOp28
 70
     0
102
RTVSPropertyOp29
 70
     0
102
RTVSPropertyOp30
 70
     0
102
RTVSPropertyOp31
 70
     0
102
RTVSPropertyOp32
 70
     0
102
RTVSPropertyOp33
 70
     0
102
RTVSPropertyOp34
 70
     0
102
RTVSPropertyOp35
 70
     0
102
RTVSPropertyOp36
 70
     0
102
RTVSPropertyOp37
 70
     0
102
RTVSPropertyOp38
 70
     0
102
RTVSPropertyOp39
 70
     0
102
RTVSPropertyOp40
 70
     0
102
RTVSPropertyOp41
 70
     0
102
RTVSPropertyOp42
 70
     0
102
RTVSPropertyOp43
 70
     0
102
RTVSPropertyOp44
 70
     0
102
RTVSPropertyOp45
 70
     0
102
RTVSPropertyOp46
 70
     0
102
RTVSPropertyOp47
 70
     0
102
RTVSPropertyOp48
 70
     0
102
RTVSPropertyOp49
 70
     0
102
RTVSPropertyOp50
 70
     0
102
RTVSPropertyOp51
 70
     0
102
RTVSPropertyOp52
 70
     0
102
RTVSPropertyOp53
 70
     0
102
RTVSPropertyOp54
 70
     0
102
RTVSPropertyOp55
 70
     0
102
RTVSPropertyOp56
 70
     0
102
RTVSPropertyOp57
 70
     0
102
RTVSPost2010Prop28
280
     0
102
RTVSPost2010PropOp28
 70
     0
102
RTVSPost2010Prop29
280
     1
102
RTVSPost2010PropOp29
 70
     0
102
RTVSPost2010Prop30
280
     1
102
RTVSPost2010PropOp30
 70
     0
102
RTVSPost2010Prop31
280
     0
102
RTVSPost2010PropOp31
 70
     0
102
RTVSPost2010Prop32
280
     0
102
RTVSPost2010PropOp32
 70
     0
102
RTVSPost2010Prop33
280
     0
102
RTVSPost2010PropOp33
 70
     0
102
RTVSPost2010Prop34
280
     0
102
RTVSPost2010PropOp34
 70
     0
102
RTVSPost2010Prop35
280
     0
102
RTVSPost2010PropOp35
 70
     0
102
RTVSPost2010Prop36
280
     0
102
RTVSPost2010PropOp36
 70
     0
102
RTVSPost2010Prop37
 90
       50
102
RTVSPost2010PropOp37
 70
     0
102
RTVSPost2010Prop38
140
0.0
102
RTVSPost2010PropOp38
 70
     0
102
RTVSPost2010Prop39
140
1.0
102
RTVSPost2010PropOp39
 70
     0
102
RTVSPost2010Prop40
 90
        0
102
RTVSPost2010PropOp40
 70
     0
102
RTVSPost2010Prop41ColorIndex
 90
       18
102
RTVSPost2010Prop41ColorRGB
 90
        0
102
RTVSPost2010PropOp41
 70
     0
102
RTVSPost2010Prop42
 90
       50
102
RTVSPost2010PropOp42
 70
     0
102
RTVSPost2010Prop43
 90
        3
102
RTVSPost2010PropOp43
 70
     0
102
RTVSPost2010Prop44ColorIndex
 90
        5
102
RTVSPost2010Prop44ColorRGB
 90
      255
102
RTVSPost2010PropOp44
 70
     0
102
RTVSPost2010Prop45
280
     0
102
RTVSPost2010PropOp45
 70
     0
102
RTVSPost2010Prop46
 90
       50
102
RTVSPost2010PropOp46
 70
     0
102
RTVSPost2010Prop47
 90
       50
102
RTVSPost2010PropOp47
 70
     0
102
RTVSPost2010Prop48
 90
       50
102
RTVSPost2010PropOp48
 70
     0
102
RTVSPost2010Prop49
280
     0
102
RTVSPost2010PropOp49
 70
     0
102
RTVSPost2010Prop50
 90
       50
102
RTVSPost2010PropOp50
 70
     0
102
RTVSPost2010Prop51ColorIndex
 90
      256
102
RTVSPost2010Prop51ColorRGB
 90
-16777216
102
RTVSPost2010PropOp51
 70
     0
102
RTVSPost2010Prop52
140
1.0
102
RTVSPost2010PropOp52
 70
     0
102
RTVSPost2010Prop53
 90
        2
102
RTVSPost2010PropOp53
 70
     0
102
RTVSPost2010Prop54
  1
strokes_ogs.tif
102
RTVSPost2010PropOp54
 70
     0
102
RTVSPost2010Prop55
280
     0
102
RTVSPost2010PropOp55
 70
     0
102
RTVSPost2010Prop56
140
1.0
102
RTVSPost2010PropOp56
 70
     0
102
RTVSPost2010Prop57
140
1.0
102
RTVSPost2010PropOp57
 70
     0
  0
XRECORD
  5
2F4
102
{ACAD_REACTORS
330
2F3
102
}
330
2F3
100
AcDbXrecord
280
     1
102
RTVSPropertyOp0
 70
     1
102
RTVSPropertyOp1
 70
     1
102
RTVSPropertyOp2
 70
     1
102
RTVSPropertyOp3
 70
     1
102
RTVSPropertyOp4
 70
     1
102
RTVSPropertyOp5
 70
     1
102
RTVSPropertyOp6
 70
     1
102
RTVSPropertyOp7
 70
     1
102
RTVSPropertyOp8
 70
     1
102
RTVSPropertyOp9
 70
     1
102
RTVSPropertyOp10
 70
     1
102
RTVSPropertyOp11
 70
     1
102
RTVSPropertyOp12
 70
     1
102
RTVSPropertyOp13
 70
     1
102
RTVSPropertyOp14
 70
     1
102
RTVSPropertyOp15
 70
     1
102
RTVSPropertyOp16
 70
     1
102
RTVSPropertyOp17
 70
     1
102
RTVSPropertyOp18
 70
     1
102
RTVSPropertyOp19
 70
     1
102
RTVSPropertyOp20
 70
     1
102
RTVSPropertyOp21
 70
     1
102
RTVSPropertyOp22
 70
     1
102
RTVSPropertyOp23
 70
     1
102
RTVSPropertyOp24
 70
     1
102
RTVSPropertyOp25
 70
     1
102
RTVSPropertyOp26
 70
     1
102
RTVSPropertyOp27
 70
     1
102
RTVSPropertyOp28
 70
     1
102
RTVSPropertyOp29
 70
     1
102
RTVSPropertyOp30
 70
     1
102
RTVSPropertyOp31
 70
     1
102
RTVSPropertyOp32
 70
     1
102
RTVSPropertyOp33
 70
     1
102
RTVSPropertyOp34
 70
     1
102
RTVSPropertyOp35
 70
     1
102
RTVSPropertyOp36
 70
     1
102
RTVSPropertyOp37
 70
     1
102
RTVSPropertyOp38
 70
     1
102
RTVSPropertyOp39
 70
     1
102
RTVSPropertyOp40
 70
     1
102
RTVSPropertyOp41
 70
     1
102
RTVSPropertyOp42
 70
     1
102
RTVSPropertyOp43
 70
     1
102
RTVSPropertyOp44
 70
     1
102
RTVSPropertyOp45
 70
     1
102
RTVSPropertyOp46
 70
     1
102
RTVSPropertyOp47
 70
     1
102
RTVSPropertyOp48
 70
     1
102
RTVSPropertyOp49
 70
     1
102
RTVSPropertyOp50
 70
     1
102
RTVSPropertyOp51
 70
     0
102
RTVSPropertyOp52
 70
     0
102
RTVSPropertyOp53
 70
     1
102
RTVSPropertyOp54
 70
     1
102
RTVSPropertyOp55
 70
     1
102
RTVSPropertyOp56
 70
     1
102
RTVSPropertyOp57
 70
     1
102
RTVSPost2010Prop28
280
     0
102
RTVSPost2010PropOp28
 70
     1
102
RTVSPost2010Prop29
280
     1
102
RTVSPost2010PropOp29
 70
     1
102
RTVSPost2010Prop30
280
     1
102
RTVSPost2010PropOp30
 70
     1
102
RTVSPost2010Prop31
280
     0
102
RTVSPost2010PropOp31
 70
     1
102
RTVSPost2010Prop32
280
     0
102
RTVSPost2010PropOp32
 70
     1
102
RTVSPost2010Prop33
280
     0
102
RTVSPost2010PropOp33
 70
     1
102
RTVSPost2010Prop34
280
     0
102
RTVSPost2010PropOp34
 70
     1
102
RTVSPost2010Prop35
280
     0
102
RTVSPost2010PropOp35
 70
     1
102
RTVSPost2010Prop36
280
     0
102
RTVSPost2010PropOp36
 70
     1
102
RTVSPost2010Prop37
 90
       50
102
RTVSPost2010PropOp37
 70
     1
102
RTVSPost2010Prop38
140
0.0
102
RTVSPost2010PropOp38
 70
     1
102
RTVSPost2010Prop39
140
1.0
102
RTVSPost2010PropOp39
 70
     1
102
RTVSPost2010Prop40
 90
        0
102
RTVSPost2010PropOp40
 70
     1
102
RTVSPost2010Prop41ColorIndex
 90
       18
102
RTVSPost2010Prop41ColorRGB
 90
        0
102
RTVSPost2010PropOp41
 70
     1
102
RTVSPost2010Prop42
 90
       50
102
RTVSPost2010PropOp42
 70
     1
102
RTVSPost2010Prop43
 90
        3
102
RTVSPost2010PropOp43
 70
     1
102
RTVSPost2010Prop44ColorIndex
 90
        5
102
RTVSPost2010Prop44ColorRGB
 90
      255
102
RTVSPost2010PropOp44
 70
     1
102
RTVSPost2010Prop45
280
     0
102
RTVSPost2010PropOp45
 70
     1
102
RTVSPost2010Prop46
 90
       50
102
RTVSPost2010PropOp46
 70
     1
102
RTVSPost2010Prop47
 90
       50
102
RTVSPost2010PropOp47
 70
     1
102
RTVSPost2010Prop48
 90
       50
102
RTVSPost2010PropOp48
 70
     1
102
RTVSPost2010Prop49
280
     0
102
RTVSPost2010PropOp49
 70
     1
102
RTVSPost2010Prop50
 90
       50
102
RTVSPost2010PropOp50
 70
     1
102
RTVSPost2010Prop51ColorIndex
 90
      256
102
RTVSPost2010Prop51ColorRGB
 90
-16777216
102
RTVSPost2010PropOp51
 70
     0
102
RTVSPost2010Prop52
140
1.0
102
RTVSPost2010PropOp52
 70
     0
102
RTVSPost2010Prop53
 90
        2
102
RTVSPost2010PropOp53
 70
     1
102
RTVSPost2010Prop54
  1
strokes_ogs.tif
102
RTVSPost2010PropOp54
 70
     1
102
RTVSPost2010Prop55
280
     0
102
RTVSPost2010PropOp55
 70
     1
102
RTVSPost2010Prop56
140
1.0
102
RTVSPost2010PropOp56
 70
     1
102
RTVSPost2010Prop57
140
1.0
102
RTVSPost2010PropOp57
 70
     1
  0
XRECORD
  5
2FC
102
{ACAD_REACTORS
330
2FB
102
}
330
2FB
100
AcDbXrecord
280
     1
102
RTVSPropertyOp0
 70
     0
102
RTVSPropertyOp1
 70
     0
102
RTVSPropertyOp2
 70
     0
102
RTVSPropertyOp3
 70
     0
102
RTVSPropertyOp4
 70
     0
102
RTVSPropertyOp5
 70
     0
102
RTVSPropertyOp6
 70
     0
102
RTVSPropertyOp7
 70
     0
102
RTVSPropertyOp8
 70
     0
102
RTVSPropertyOp9
 70
     0
102
RTVSPropertyOp10
 70
     0
102
RTVSPropertyOp11
 70
     0
102
RTVSPropertyOp12
 70
     0
102
RTVSPropertyOp13
 70
     0
102
RTVSPropertyOp14
 70
     2
102
RTVSPropertyOp15
 70
     0
102
RTVSPropertyOp16
 70
     0
102
RTVSPropertyOp17
 70
     0
102
RTVSPropertyOp18
 70
     0
102
RTVSPropertyOp19
 70
     0
102
RTVSPropertyOp20
 70
     0
102
RTVSPropertyOp21
 70
     0
102
RTVSPropertyOp22
 70
     0
102
RTVSPropertyOp23
 70
     0
102
RTVSPropertyOp24
 70
     0
102
RTVSPropertyOp25
 70
     0
102
RTVSPropertyOp26
 70
     0
102
RTVSPropertyOp27
 70
     0
102
RTVSPropertyOp28
 70
     0
102
RTVSPropertyOp29
 70
     0
102
RTVSPropertyOp30
 70
     0
102
RTVSPropertyOp31
 70
     0
102
RTVSPropertyOp32
 70
     0
102
RTVSPropertyOp33
 70
     0
102
RTVSPropertyOp34
 70
     0
102
RTVSPropertyOp35
 70
     0
102
RTVSPropertyOp36
 70
     0
102
RTVSPropertyOp37
 70
     0
102
RTVSPropertyOp38
 70
     0
102
RTVSPropertyOp39
 70
     0
102
RTVSPropertyOp40
 70
     0
102
RTVSPropertyOp41
 70
     0
102
RTVSPropertyOp42
 70
     0
102
RTVSPropertyOp43
 70
     0
102
RTVSPropertyOp44
 70
     0
102
RTVSPropertyOp45
 70
     0
102
RTVSPropertyOp46
 70
     0
102
RTVSPropertyOp47
 70
     0
102
RTVSPropertyOp48
 70
     0
102
RTVSPropertyOp49
 70
     0
102
RTVSPropertyOp50
 70
     0
102
RTVSPropertyOp51
 70
     0
102
RTVSPropertyOp52
 70
     0
102
RTVSPropertyOp53
 70
     0
102
RTVSPropertyOp54
 70
     0
102
RTVSPropertyOp55
 70
     0
102
RTVSPropertyOp56
 70
     0
102
RTVSPropertyOp57
 70
     0
102
RTVSPost2010Prop28
280
     0
102
RTVSPost2010PropOp28
 70
     0
102
RTVSPost2010Prop29
280
     1
102
RTVSPost2010PropOp29
 70
     0
102
RTVSPost2010Prop30
280
     1
102
RTVSPost2010PropOp30
 70
     0
102
RTVSPost2010Prop31
280
     0
102
RTVSPost2010PropOp31
 70
     0
102
RTVSPost2010Prop32
280
     0
102
RTVSPost2010PropOp32
 70
     0
102
RTVSPost2010Prop33
280
     0
102
RTVSPost2010PropOp33
 70
     0
102
RTVSPost2010Prop34
280
     0
102
RTVSPost2010PropOp34
 70
     0
102
RTVSPost2010Prop35
280
     0
102
RTVSPost2010PropOp35
 70
     0
102
RTVSPost2010Prop36
280
     0
102
RTVSPost2010PropOp36
 70
     0
102
RTVSPost2010Prop37
 90
       50
102
RTVSPost2010PropOp37
 70
     0
102
RTVSPost2010Prop38
140
0.0
102
RTVSPost2010PropOp38
 70
     0
102
RTVSPost2010Prop39
140
1.0
102
RTVSPost2010PropOp39
 70
     0
102
RTVSPost2010Prop40
 90
        0
102
RTVSPost2010PropOp40
 70
     0
102
RTVSPost2010Prop41ColorIndex
 90
       18
102
RTVSPost2010Prop41ColorRGB
 90
        0
102
RTVSPost2010PropOp41
 70
     0
102
RTVSPost2010Prop42
 90
       50
102
RTVSPost2010PropOp42
 70
     0
102
RTVSPost2010Prop43
 90
        3
102
RTVSPost2010PropOp43
 70
     0
102
RTVSPost2010Prop44ColorIndex
 90
        5
102
RTVSPost2010Prop44ColorRGB
 90
      255
102
RTVSPost2010PropOp44
 70
     0
102
RTVSPost2010Prop45
280
     0
102
RTVSPost2010PropOp45
 70
     0
102
RTVSPost2010Prop46
 90
       50
102
RTVSPost2010PropOp46
 70
     0
102
RTVSPost2010Prop47
 90
       50
102
RTVSPost2010PropOp47
 70
     0
102
RTVSPost2010Prop48
 90
       50
102
RTVSPost2010PropOp48
 70
     0
102
RTVSPost2010Prop49
280
     0
102
RTVSPost2010PropOp49
 70
     0
102
RTVSPost2010Prop50
 90
       50
102
RTVSPost2010PropOp50
 70
     0
102
RTVSPost2010Prop51ColorIndex
 90
      256
102
RTVSPost2010Prop51ColorRGB
 90
-16777216
102
RTVSPost2010PropOp51
 70
     0
102
RTVSPost2010Prop52
140
1.0
102
RTVSPost2010PropOp52
 70
     0
102
RTVSPost2010Prop53
 90
        2
102
RTVSPost2010PropOp53
 70
     0
102
RTVSPost2010Prop54
  1
strokes_ogs.tif
102
RTVSPost2010PropOp54
 70
     0
102
RTVSPost2010Prop55
280
     0
102
RTVSPost2010PropOp55
 70
     0
102
RTVSPost2010Prop56
140
1.0
102
RTVSPost2010PropOp56
 70
     0
102
RTVSPost2010Prop57
140
1.0
102
RTVSPost2010PropOp57
 70
     0
  0
XRECORD
  5
2EA
102
{ACAD_REACTORS
330
2E9
102
}
330
2E9
100
AcDbXrecord
280
     1
102
RTVSPropertyOp0
 70
     1
102
RTVSPropertyOp1
 70
     1
102
RTVSPropertyOp2
 70
     1
102
RTVSPropertyOp3
 70
     1
102
RTVSPropertyOp4
 70
     1
102
RTVSPropertyOp5
 70
     1
102
RTVSPropertyOp6
 70
     1
102
RTVSPropertyOp7
 70
     1
102
RTVSPropertyOp8
 70
     1
102
RTVSPropertyOp9
 70
     1
102
RTVSPropertyOp10
 70
     1
102
RTVSPropertyOp11
 70
     1
102
RTVSPropertyOp12
 70
     1
102
RTVSPropertyOp13
 70
     1
102
RTVSPropertyOp14
 70
     1
102
RTVSPropertyOp15
 70
     1
102
RTVSPropertyOp16
 70
     1
102
RTVSPropertyOp17
 70
     1
102
RTVSPropertyOp18
 70
     1
102
RTVSPropertyOp19
 70
     1
102
RTVSPropertyOp20
 70
     1
102
RTVSPropertyOp21
 70
     1
102
RTVSPropertyOp22
 70
     1
102
RTVSPropertyOp23
 70
     1
102
RTVSPropertyOp24
 70
     1
102
RTVSPropertyOp25
 70
     1
102
RTVSPropertyOp26
 70
     1
102
RTVSPropertyOp27
 70
     1
102
RTVSPropertyOp28
 70
     1
102
RTVSPropertyOp29
 70
     1
102
RTVSPropertyOp30
 70
     1
102
RTVSPropertyOp31
 70
     1
102
RTVSPropertyOp32
 70
     1
102
RTVSPropertyOp33
 70
     1
102
RTVSPropertyOp34
 70
     1
102
RTVSPropertyOp35
 70
     1
102
RTVSPropertyOp36
 70
     1
102
RTVSPropertyOp37
 70
     1
102
RTVSPropertyOp38
 70
     1
102
RTVSPropertyOp39
 70
     1
102
RTVSPropertyOp40
 70
     1
102
RTVSPropertyOp41
 70
     1
102
RTVSPropertyOp42
 70
     1
102
RTVSPropertyOp43
 70
     1
102
RTVSPropertyOp44
 70
     1
102
RTVSPropertyOp45
 70
     1
102
RTVSPropertyOp46
 70
     1
102
RTVSPropertyOp47
 70
     1
102
RTVSPropertyOp48
 70
     1
102
RTVSPropertyOp49
 70
     1
102
RTVSPropertyOp50
 70
     1
102
RTVSPropertyOp51
 70
     0
102
RTVSPropertyOp52
 70
     0
102
RTVSPropertyOp53
 70
     1
102
RTVSPropertyOp54
 70
     1
102
RTVSPropertyOp55
 70
     1
102
RTVSPropertyOp56
 70
     1
102
RTVSPropertyOp57
 70
     1
102
RTVSPost2010Prop28
280
     0
102
RTVSPost2010PropOp28
 70
     1
102
RTVSPost2010Prop29
280
     1
102
RTVSPost2010PropOp29
 70
     1
102
RTVSPost2010Prop30
280
     1
102
RTVSPost2010PropOp30
 70
     1
102
RTVSPost2010Prop31
280
     0
102
RTVSPost2010PropOp31
 70
     1
102
RTVSPost2010Prop32
280
     0
102
RTVSPost2010PropOp32
 70
     1
102
RTVSPost2010Prop33
280
     0
102
RTVSPost2010PropOp33
 70
     1
102
RTVSPost2010Prop34
280
     0
102
RTVSPost2010PropOp34
 70
     1
102
RTVSPost2010Prop35
280
     0
102
RTVSPost2010PropOp35
 70
     1
102
RTVSPost2010Prop36
280
     0
102
RTVSPost2010PropOp36
 70
     1
102
RTVSPost2010Prop37
 90
       50
102
RTVSPost2010PropOp37
 70
     1
102
RTVSPost2010Prop38
140
0.0
102
RTVSPost2010PropOp38
 70
     1
102
RTVSPost2010Prop39
140
1.0
102
RTVSPost2010PropOp39
 70
     1
102
RTVSPost2010Prop40
 90
        0
102
RTVSPost2010PropOp40
 70
     1
102
RTVSPost2010Prop41ColorIndex
 90
       18
102
RTVSPost2010Prop41ColorRGB
 90
        0
102
RTVSPost2010PropOp41
 70
     1
102
RTVSPost2010Prop42
 90
       50
102
RTVSPost2010PropOp42
 70
     1
102
RTVSPost2010Prop43
 90
        3
102
RTVSPost2010PropOp43
 70
     1
102
RTVSPost2010Prop44ColorIndex
 90
        5
102
RTVSPost2010Prop44ColorRGB
 90
      255
102
RTVSPost2010PropOp44
 70
     1
102
RTVSPost2010Prop45
280
     0
102
RTVSPost2010PropOp45
 70
     1
102
RTVSPost2010Prop46
 90
       50
102
RTVSPost2010PropOp46
 70
     1
102
RTVSPost2010Prop47
 90
       50
102
RTVSPost2010PropOp47
 70
     1
102
RTVSPost2010Prop48
 90
       50
102
RTVSPost2010PropOp48
 70
     1
102
RTVSPost2010Prop49
280
     0
102
RTVSPost2010PropOp49
 70
     1
102
RTVSPost2010Prop50
 90
       50
102
RTVSPost2010PropOp50
 70
     1
102
RTVSPost2010Prop51ColorIndex
 90
      256
102
RTVSPost2010Prop51ColorRGB
 90
-16777216
102
RTVSPost2010PropOp51
 70
     0
102
RTVSPost2010Prop52
140
1.0
102
RTVSPost2010PropOp52
 70
     0
102
RTVSPost2010Prop53
 90
        2
102
RTVSPost2010PropOp53
 70
     1
102
RTVSPost2010Prop54
  1
strokes_ogs.tif
102
RTVSPost2010PropOp54
 70
     1
102
RTVSPost2010Prop55
280
     0
102
RTVSPost2010PropOp55
 70
     1
102
RTVSPost2010Prop56
140
1.0
102
RTVSPost2010PropOp56
 70
     1
102
RTVSPost2010Prop57
140
1.0
102
RTVSPost2010PropOp57
 70
     1
  0
XRECORD
  5
308
102
{ACAD_REACTORS
330
307
102
}
330
307
100
AcDbXrecord
280
     1
102
RTVSPropertyOp0
 70
     1
102
RTVSPropertyOp1
 70
     1
102
RTVSPropertyOp2
 70
     1
102
RTVSPropertyOp3
 70
     1
102
RTVSPropertyOp4
 70
     1
102
RTVSPropertyOp5
 70
     1
102
RTVSPropertyOp6
 70
     1
102
RTVSPropertyOp7
 70
     1
102
RTVSPropertyOp8
 70
     1
102
RTVSPropertyOp9
 70
     1
102
RTVSPropertyOp10
 70
     1
102
RTVSPropertyOp11
 70
     1
102
RTVSPropertyOp12
 70
     1
102
RTVSPropertyOp13
 70
     1
102
RTVSPropertyOp14
 70
     1
102
RTVSPropertyOp15
 70
     1
102
RTVSPropertyOp16
 70
     1
102
RTVSPropertyOp17
 70
     1
102
RTVSPropertyOp18
 70
     1
102
RTVSPropertyOp19
 70
     1
102
RTVSPropertyOp20
 70
     1
102
RTVSPropertyOp21
 70
     1
102
RTVSPropertyOp22
 70
     1
102
RTVSPropertyOp23
 70
     1
102
RTVSPropertyOp24
 70
     1
102
RTVSPropertyOp25
 70
     1
102
RTVSPropertyOp26
 70
     1
102
RTVSPropertyOp27
 70
     1
102
RTVSPropertyOp28
 70
     1
102
RTVSPropertyOp29
 70
     1
102
RTVSPropertyOp30
 70
     1
102
RTVSPropertyOp31
 70
     1
102
RTVSPropertyOp32
 70
     1
102
RTVSPropertyOp33
 70
     1
102
RTVSPropertyOp34
 70
     1
102
RTVSPropertyOp35
 70
     1
102
RTVSPropertyOp36
 70
     1
102
RTVSPropertyOp37
 70
     1
102
RTVSPropertyOp38
 70
     1
102
RTVSPropertyOp39
 70
     1
102
RTVSPropertyOp40
 70
     1
102
RTVSPropertyOp41
 70
     1
102
RTVSPropertyOp42
 70
     1
102
RTVSPropertyOp43
 70
     1
102
RTVSPropertyOp44
 70
     1
102
RTVSPropertyOp45
 70
     1
102
RTVSPropertyOp46
 70
     1
102
RTVSPropertyOp47
 70
     1
102
RTVSPropertyOp48
 70
     1
102
RTVSPropertyOp49
 70
     1
102
RTVSPropertyOp50
 70
     1
102
RTVSPropertyOp51
 70
     0
102
RTVSPropertyOp52
 70
     0
102
RTVSPropertyOp53
 70
     1
102
RTVSPropertyOp54
 70
     1
102
RTVSPropertyOp55
 70
     1
102
RTVSPropertyOp56
 70
     1
102
RTVSPropertyOp57
 70
     1
102
RTVSPost2010Prop28
280
     0
102
RTVSPost2010PropOp28
 70
     1
102
RTVSPost2010Prop29
280
     1
102
RTVSPost2010PropOp29
 70
     1
102
RTVSPost2010Prop30
280
     1
102
RTVSPost2010PropOp30
 70
     1
102
RTVSPost2010Prop31
280
     0
102
RTVSPost2010PropOp31
 70
     1
102
RTVSPost2010Prop32
280
     0
102
RTVSPost2010PropOp32
 70
     1
102
RTVSPost2010Prop33
280
     0
102
RTVSPost2010PropOp33
 70
     1
102
RTVSPost2010Prop34
280
     0
102
RTVSPost2010PropOp34
 70
     1
102
RTVSPost2010Prop35
280
     0
102
RTVSPost2010PropOp35
 70
     1
102
RTVSPost2010Prop36
280
     0
102
RTVSPost2010PropOp36
 70
     1
102
RTVSPost2010Prop37
 90
       50
102
RTVSPost2010PropOp37
 70
     1
102
RTVSPost2010Prop38
140
0.0
102
RTVSPost2010PropOp38
 70
     1
102
RTVSPost2010Prop39
140
1.0
102
RTVSPost2010PropOp39
 70
     1
102
RTVSPost2010Prop40
 90
        0
102
RTVSPost2010PropOp40
 70
     1
102
RTVSPost2010Prop41ColorIndex
 90
       18
102
RTVSPost2010Prop41ColorRGB
 90
        0
102
RTVSPost2010PropOp41
 70
     1
102
RTVSPost2010Prop42
 90
       50
102
RTVSPost2010PropOp42
 70
     1
102
RTVSPost2010Prop43
 90
        3
102
RTVSPost2010PropOp43
 70
     1
102
RTVSPost2010Prop44ColorIndex
 90
        5
102
RTVSPost2010Prop44ColorRGB
 90
      255
102
RTVSPost2010PropOp44
 70
     1
102
RTVSPost2010Prop45
280
     0
102
RTVSPost2010PropOp45
 70
     1
102
RTVSPost2010Prop46
 90
       50
102
RTVSPost2010PropOp46
 70
     1
102
RTVSPost2010Prop47
 90
       50
102
RTVSPost2010PropOp47
 70
     1
102
RTVSPost2010Prop48
 90
       50
102
RTVSPost2010PropOp48
 70
     1
102
RTVSPost2010Prop49
280
     0
102
RTVSPost2010PropOp49
 70
     1
102
RTVSPost2010Prop50
 90
       50
102
RTVSPost2010PropOp50
 70
     1
102
RTVSPost2010Prop51ColorIndex
 90
      256
102
RTVSPost2010Prop51ColorRGB
 90
-16777216
102
RTVSPost2010PropOp51
 70
     0
102
RTVSPost2010Prop52
140
1.0
102
RTVSPost2010PropOp52
 70
     0
102
RTVSPost2010Prop53
 90
        2
102
RTVSPost2010PropOp53
 70
     1
102
RTVSPost2010Prop54
  1
strokes_ogs.tif
102
RTVSPost2010PropOp54
 70
     1
102
RTVSPost2010Prop55
280
     0
102
RTVSPost2010PropOp55
 70
     1
102
RTVSPost2010Prop56
140
1.0
102
RTVSPost2010PropOp56
 70
     1
102
RTVSPost2010Prop57
140
1.0
102
RTVSPost2010PropOp57
 70
     1
  0
XRECORD
  5
306
102
{ACAD_REACTORS
330
305
102
}
330
305
100
AcDbXrecord
280
     1
102
RTVSPropertyOp0
 70
     1
102
RTVSPropertyOp1
 70
     1
102
RTVSPropertyOp2
 70
     1
102
RTVSPropertyOp3
 70
     1
102
RTVSPropertyOp4
 70
     1
102
RTVSPropertyOp5
 70
     1
102
RTVSPropertyOp6
 70
     1
102
RTVSPropertyOp7
 70
     1
102
RTVSPropertyOp8
 70
     1
102
RTVSPropertyOp9
 70
     1
102
RTVSPropertyOp10
 70
     1
102
RTVSPropertyOp11
 70
     1
102
RTVSPropertyOp12
 70
     1
102
RTVSPropertyOp13
 70
     1
102
RTVSPropertyOp14
 70
     1
102
RTVSPropertyOp15
 70
     1
102
RTVSPropertyOp16
 70
     1
102
RTVSPropertyOp17
 70
     1
102
RTVSPropertyOp18
 70
     1
102
RTVSPropertyOp19
 70
     1
102
RTVSPropertyOp20
 70
     1
102
RTVSPropertyOp21
 70
     1
102
RTVSPropertyOp22
 70
     1
102
RTVSPropertyOp23
 70
     1
102
RTVSPropertyOp24
 70
     1
102
RTVSPropertyOp25
 70
     1
102
RTVSPropertyOp26
 70
     1
102
RTVSPropertyOp27
 70
     1
102
RTVSPropertyOp28
 70
     1
102
RTVSPropertyOp29
 70
     1
102
RTVSPropertyOp30
 70
     1
102
RTVSPropertyOp31
 70
     1
102
RTVSPropertyOp32
 70
     1
102
RTVSPropertyOp33
 70
     1
102
RTVSPropertyOp34
 70
     1
102
RTVSPropertyOp35
 70
     1
102
RTVSPropertyOp36
 70
     1
102
RTVSPropertyOp37
 70
     1
102
RTVSPropertyOp38
 70
     1
102
RTVSPropertyOp39
 70
     1
102
RTVSPropertyOp40
 70
     1
102
RTVSPropertyOp41
 70
     1
102
RTVSPropertyOp42
 70
     1
102
RTVSPropertyOp43
 70
     1
102
RTVSPropertyOp44
 70
     1
102
RTVSPropertyOp45
 70
     1
102
RTVSPropertyOp46
 70
     1
102
RTVSPropertyOp47
 70
     1
102
RTVSPropertyOp48
 70
     1
102
RTVSPropertyOp49
 70
     1
102
RTVSPropertyOp50
 70
     1
102
RTVSPropertyOp51
 70
     0
102
RTVSPropertyOp52
 70
     0
102
RTVSPropertyOp53
 70
     1
102
RTVSPropertyOp54
 70
     1
102
RTVSPropertyOp55
 70
     1
102
RTVSPropertyOp56
 70
     1
102
RTVSPropertyOp57
 70
     1
102
RTVSPost2010Prop28
280
     0
102
RTVSPost2010PropOp28
 70
     1
102
RTVSPost2010Prop29
280
     1
102
RTVSPost2010PropOp29
 70
     1
102
RTVSPost2010Prop30
280
     1
102
RTVSPost2010PropOp30
 70
     1
102
RTVSPost2010Prop31
280
     0
102
RTVSPost2010PropOp31
 70
     1
102
RTVSPost2010Prop32
280
     0
102
RTVSPost2010PropOp32
 70
     1
102
RTVSPost2010Prop33
280
     0
102
RTVSPost2010PropOp33
 70
     1
102
RTVSPost2010Prop34
280
     0
102
RTVSPost2010PropOp34
 70
     1
102
RTVSPost2010Prop35
280
     0
102
RTVSPost2010PropOp35
 70
     1
102
RTVSPost2010Prop36
280
     0
102
RTVSPost2010PropOp36
 70
     1
102
RTVSPost2010Prop37
 90
       50
102
RTVSPost2010PropOp37
 70
     1
102
RTVSPost2010Prop38
140
0.0
102
RTVSPost2010PropOp38
 70
     1
102
RTVSPost2010Prop39
140
1.0
102
RTVSPost2010PropOp39
 70
     1
102
RTVSPost2010Prop40
 90
        0
102
RTVSPost2010PropOp40
 70
     1
102
RTVSPost2010Prop41ColorIndex
 90
       18
102
RTVSPost2010Prop41ColorRGB
 90
        0
102
RTVSPost2010PropOp41
 70
     1
102
RTVSPost2010Prop42
 90
       50
102
RTVSPost2010PropOp42
 70
     1
102
RTVSPost2010Prop43
 90
        3
102
RTVSPost2010PropOp43
 70
     1
102
RTVSPost2010Prop44ColorIndex
 90
        5
102
RTVSPost2010Prop44ColorRGB
 90
      255
102
RTVSPost2010PropOp44
 70
     1
102
RTVSPost2010Prop45
280
     0
102
RTVSPost2010PropOp45
 70
     1
102
RTVSPost2010Prop46
 90
       50
102
RTVSPost2010PropOp46
 70
     1
102
RTVSPost2010Prop47
 90
       50
102
RTVSPost2010PropOp47
 70
     1
102
RTVSPost2010Prop48
 90
       50
102
RTVSPost2010PropOp48
 70
     1
102
RTVSPost2010Prop49
280
     0
102
RTVSPost2010PropOp49
 70
     1
102
RTVSPost2010Prop50
 90
       50
102
RTVSPost2010PropOp50
 70
     1
102
RTVSPost2010Prop51ColorIndex
 90
      256
102
RTVSPost2010Prop51ColorRGB
 90
-16777216
102
RTVSPost2010PropOp51
 70
     0
102
RTVSPost2010Prop52
140
1.0
102
RTVSPost2010PropOp52
 70
     0
102
RTVSPost2010Prop53
 90
        2
102
RTVSPost2010PropOp53
 70
     1
102
RTVSPost2010Prop54
  1
strokes_ogs.tif
102
RTVSPost2010PropOp54
 70
     1
102
RTVSPost2010Prop55
280
     0
102
RTVSPost2010PropOp55
 70
     1
102
RTVSPost2010Prop56
140
1.0
102
RTVSPost2010PropOp56
 70
     1
102
RTVSPost2010Prop57
140
1.0
102
RTVSPost2010PropOp57
 70
     1
  0
XRECORD
  5
300
102
{ACAD_REACTORS
330
2FF
102
}
330
2FF
100
AcDbXrecord
280
     1
102
RTVSPropertyOp0
 70
     1
102
RTVSPropertyOp1
 70
     1
102
RTVSPropertyOp2
 70
     1
102
RTVSPropertyOp3
 70
     1
102
RTVSPropertyOp4
 70
     1
102
RTVSPropertyOp5
 70
     1
102
RTVSPropertyOp6
 70
     1
102
RTVSPropertyOp7
 70
     1
102
RTVSPropertyOp8
 70
     1
102
RTVSPropertyOp9
 70
     1
102
RTVSPropertyOp10
 70
     1
102
RTVSPropertyOp11
 70
     1
102
RTVSPropertyOp12
 70
     1
102
RTVSPropertyOp13
 70
     1
102
RTVSPropertyOp14
 70
     1
102
RTVSPropertyOp15
 70
     1
102
RTVSPropertyOp16
 70
     1
102
RTVSPropertyOp17
 70
     1
102
RTVSPropertyOp18
 70
     1
102
RTVSPropertyOp19
 70
     1
102
RTVSPropertyOp20
 70
     1
102
RTVSPropertyOp21
 70
     1
102
RTVSPropertyOp22
 70
     1
102
RTVSPropertyOp23
 70
     1
102
RTVSPropertyOp24
 70
     1
102
RTVSPropertyOp25
 70
     1
102
RTVSPropertyOp26
 70
     1
102
RTVSPropertyOp27
 70
     1
102
RTVSPropertyOp28
 70
     1
102
RTVSPropertyOp29
 70
     1
102
RTVSPropertyOp30
 70
     1
102
RTVSPropertyOp31
 70
     1
102
RTVSPropertyOp32
 70
     1
102
RTVSPropertyOp33
 70
     1
102
RTVSPropertyOp34
 70
     1
102
RTVSPropertyOp35
 70
     1
102
RTVSPropertyOp36
 70
     1
102
RTVSPropertyOp37
 70
     1
102
RTVSPropertyOp38
 70
     1
102
RTVSPropertyOp39
 70
     1
102
RTVSPropertyOp40
 70
     1
102
RTVSPropertyOp41
 70
     1
102
RTVSPropertyOp42
 70
     1
102
RTVSPropertyOp43
 70
     1
102
RTVSPropertyOp44
 70
     1
102
RTVSPropertyOp45
 70
     1
102
RTVSPropertyOp46
 70
     1
102
RTVSPropertyOp47
 70
     1
102
RTVSPropertyOp48
 70
     1
102
RTVSPropertyOp49
 70
     1
102
RTVSPropertyOp50
 70
     1
102
RTVSPropertyOp51
 70
     0
102
RTVSPropertyOp52
 70
     0
102
RTVSPropertyOp53
 70
     1
102
RTVSPropertyOp54
 70
     1
102
RTVSPropertyOp55
 70
     1
102
RTVSPropertyOp56
 70
     1
102
RTVSPropertyOp57
 70
     1
102
RTVSPost2010Prop28
280
     0
102
RTVSPost2010PropOp28
 70
     1
102
RTVSPost2010Prop29
280
     1
102
RTVSPost2010PropOp29
 70
     1
102
RTVSPost2010Prop30
280
     1
102
RTVSPost2010PropOp30
 70
     1
102
RTVSPost2010Prop31
280
     0
102
RTVSPost2010PropOp31
 70
     1
102
RTVSPost2010Prop32
280
     0
102
RTVSPost2010PropOp32
 70
     1
102
RTVSPost2010Prop33
280
     0
102
RTVSPost2010PropOp33
 70
     1
102
RTVSPost2010Prop34
280
     0
102
RTVSPost2010PropOp34
 70
     1
102
RTVSPost2010Prop35
280
     0
102
RTVSPost2010PropOp35
 70
     1
102
RTVSPost2010Prop36
280
     0
102
RTVSPost2010PropOp36
 70
     1
102
RTVSPost2010Prop37
 90
       50
102
RTVSPost2010PropOp37
 70
     1
102
RTVSPost2010Prop38
140
0.0
102
RTVSPost2010PropOp38
 70
     1
102
RTVSPost2010Prop39
140
1.0
102
RTVSPost2010PropOp39
 70
     1
102
RTVSPost2010Prop40
 90
        0
102
RTVSPost2010PropOp40
 70
     1
102
RTVSPost2010Prop41ColorIndex
 90
       18
102
RTVSPost2010Prop41ColorRGB
 90
        0
102
RTVSPost2010PropOp41
 70
     1
102
RTVSPost2010Prop42
 90
       50
102
RTVSPost2010PropOp42
 70
     1
102
RTVSPost2010Prop43
 90
        3
102
RTVSPost2010PropOp43
 70
     1
102
RTVSPost2010Prop44ColorIndex
 90
        5
102
RTVSPost2010Prop44ColorRGB
 90
      255
102
RTVSPost2010PropOp44
 70
     1
102
RTVSPost2010Prop45
280
     0
102
RTVSPost2010PropOp45
 70
     1
102
RTVSPost2010Prop46
 90
       50
102
RTVSPost2010PropOp46
 70
     1
102
RTVSPost2010Prop47
 90
       50
102
RTVSPost2010PropOp47
 70
     1
102
RTVSPost2010Prop48
 90
       50
102
RTVSPost2010PropOp48
 70
     1
102
RTVSPost2010Prop49
280
     0
102
RTVSPost2010PropOp49
 70
     1
102
RTVSPost2010Prop50
 90
       50
102
RTVSPost2010PropOp50
 70
     1
102
RTVSPost2010Prop51ColorIndex
 90
      256
102
RTVSPost2010Prop51ColorRGB
 90
-16777216
102
RTVSPost2010PropOp51
 70
     0
102
RTVSPost2010Prop52
140
1.0
102
RTVSPost2010PropOp52
 70
     0
102
RTVSPost2010Prop53
 90
        2
102
RTVSPost2010PropOp53
 70
     1
102
RTVSPost2010Prop54
  1
strokes_ogs.tif
102
RTVSPost2010PropOp54
 70
     1
102
RTVSPost2010Prop55
280
     0
102
RTVSPost2010PropOp55
 70
     1
102
RTVSPost2010Prop56
140
1.0
102
RTVSPost2010PropOp56
 70
     1
102
RTVSPost2010Prop57
140
1.0
102
RTVSPost2010PropOp57
 70
     1
  0
XRECORD
  5
302
102
{ACAD_REACTORS
330
301
102
}
330
301
100
AcDbXrecord
280
     1
102
RTVSPropertyOp0
 70
     1
102
RTVSPropertyOp1
 70
     1
102
RTVSPropertyOp2
 70
     1
102
RTVSPropertyOp3
 70
     1
102
RTVSPropertyOp4
 70
     1
102
RTVSPropertyOp5
 70
     1
102
RTVSPropertyOp6
 70
     1
102
RTVSPropertyOp7
 70
     1
102
RTVSPropertyOp8
 70
     1
102
RTVSPropertyOp9
 70
     1
102
RTVSPropertyOp10
 70
     1
102
RTVSPropertyOp11
 70
     1
102
RTVSPropertyOp12
 70
     1
102
RTVSPropertyOp13
 70
     1
102
RTVSPropertyOp14
 70
     1
102
RTVSPropertyOp15
 70
     1
102
RTVSPropertyOp16
 70
     1
102
RTVSPropertyOp17
 70
     1
102
RTVSPropertyOp18
 70
     1
102
RTVSPropertyOp19
 70
     1
102
RTVSPropertyOp20
 70
     1
102
RTVSPropertyOp21
 70
     1
102
RTVSPropertyOp22
 70
     1
102
RTVSPropertyOp23
 70
     1
102
RTVSPropertyOp24
 70
     1
102
RTVSPropertyOp25
 70
     1
102
RTVSPropertyOp26
 70
     1
102
RTVSPropertyOp27
 70
     1
102
RTVSPropertyOp28
 70
     1
102
RTVSPropertyOp29
 70
     1
102
RTVSPropertyOp30
 70
     1
102
RTVSPropertyOp31
 70
     1
102
RTVSPropertyOp32
 70
     1
102
RTVSPropertyOp33
 70
     1
102
RTVSPropertyOp34
 70
     1
102
RTVSPropertyOp35
 70
     1
102
RTVSPropertyOp36
 70
     1
102
RTVSPropertyOp37
 70
     1
102
RTVSPropertyOp38
 70
     1
102
RTVSPropertyOp39
 70
     1
102
RTVSPropertyOp40
 70
     1
102
RTVSPropertyOp41
 70
     1
102
RTVSPropertyOp42
 70
     1
102
RTVSPropertyOp43
 70
     1
102
RTVSPropertyOp44
 70
     1
102
RTVSPropertyOp45
 70
     1
102
RTVSPropertyOp46
 70
     1
102
RTVSPropertyOp47
 70
     1
102
RTVSPropertyOp48
 70
     1
102
RTVSPropertyOp49
 70
     1
102
RTVSPropertyOp50
 70
     1
102
RTVSPropertyOp51
 70
     0
102
RTVSPropertyOp52
 70
     0
102
RTVSPropertyOp53
 70
     1
102
RTVSPropertyOp54
 70
     1
102
RTVSPropertyOp55
 70
     1
102
RTVSPropertyOp56
 70
     1
102
RTVSPropertyOp57
 70
     1
102
RTVSPost2010Prop28
280
     0
102
RTVSPost2010PropOp28
 70
     1
102
RTVSPost2010Prop29
280
     1
102
RTVSPost2010PropOp29
 70
     1
102
RTVSPost2010Prop30
280
     1
102
RTVSPost2010PropOp30
 70
     1
102
RTVSPost2010Prop31
280
     0
102
RTVSPost2010PropOp31
 70
     1
102
RTVSPost2010Prop32
280
     0
102
RTVSPost2010PropOp32
 70
     1
102
RTVSPost2010Prop33
280
     0
102
RTVSPost2010PropOp33
 70
     1
102
RTVSPost2010Prop34
280
     0
102
RTVSPost2010PropOp34
 70
     1
102
RTVSPost2010Prop35
280
     0
102
RTVSPost2010PropOp35
 70
     1
102
RTVSPost2010Prop36
280
     0
102
RTVSPost2010PropOp36
 70
     1
102
RTVSPost2010Prop37
 90
       50
102
RTVSPost2010PropOp37
 70
     1
102
RTVSPost2010Prop38
140
0.0
102
RTVSPost2010PropOp38
 70
     1
102
RTVSPost2010Prop39
140
1.0
102
RTVSPost2010PropOp39
 70
     1
102
RTVSPost2010Prop40
 90
        0
102
RTVSPost2010PropOp40
 70
     1
102
RTVSPost2010Prop41ColorIndex
 90
       18
102
RTVSPost2010Prop41ColorRGB
 90
        0
102
RTVSPost2010PropOp41
 70
     1
102
RTVSPost2010Prop42
 90
       50
102
RTVSPost2010PropOp42
 70
     1
102
RTVSPost2010Prop43
 90
        3
102
RTVSPost2010PropOp43
 70
     1
102
RTVSPost2010Prop44ColorIndex
 90
        5
102
RTVSPost2010Prop44ColorRGB
 90
      255
102
RTVSPost2010PropOp44
 70
     1
102
RTVSPost2010Prop45
280
     0
102
RTVSPost2010PropOp45
 70
     1
102
RTVSPost2010Prop46
 90
       50
102
RTVSPost2010PropOp46
 70
     1
102
RTVSPost2010Prop47
 90
       50
102
RTVSPost2010PropOp47
 70
     1
102
RTVSPost2010Prop48
 90
       50
102
RTVSPost2010PropOp48
 70
     1
102
RTVSPost2010Prop49
280
     0
102
RTVSPost2010PropOp49
 70
     1
102
RTVSPost2010Prop50
 90
       50
102
RTVSPost2010PropOp50
 70
     1
102
RTVSPost2010Prop51ColorIndex
 90
      256
102
RTVSPost2010Prop51ColorRGB
 90
-16777216
102
RTVSPost2010PropOp51
 70
     0
102
RTVSPost2010Prop52
140
1.0
102
RTVSPost2010PropOp52
 70
     0
102
RTVSPost2010Prop53
 90
        2
102
RTVSPost2010PropOp53
 70
     1
102
RTVSPost2010Prop54
  1
strokes_ogs.tif
102
RTVSPost2010PropOp54
 70
     1
102
RTVSPost2010Prop55
280
     0
102
RTVSPost2010PropOp55
 70
     1
102
RTVSPost2010Prop56
140
1.0
102
RTVSPost2010PropOp56
 70
     1
102
RTVSPost2010Prop57
140
1.0
102
RTVSPost2010PropOp57
 70
     1
  0
XRECORD
  5
2F2
102
{ACAD_REACTORS
330
2F1
102
}
330
2F1
100
AcDbXrecord
280
     1
102
RTVSPropertyOp0
 70
     1
102
RTVSPropertyOp1
 70
     1
102
RTVSPropertyOp2
 70
     1
102
RTVSPropertyOp3
 70
     1
102
RTVSPropertyOp4
 70
     1
102
RTVSPropertyOp5
 70
     1
102
RTVSPropertyOp6
 70
     1
102
RTVSPropertyOp7
 70
     1
102
RTVSPropertyOp8
 70
     1
102
RTVSPropertyOp9
 70
     1
102
RTVSPropertyOp10
 70
     1
102
RTVSPropertyOp11
 70
     1
102
RTVSPropertyOp12
 70
     1
102
RTVSPropertyOp13
 70
     1
102
RTVSPropertyOp14
 70
     1
102
RTVSPropertyOp15
 70
     1
102
RTVSPropertyOp16
 70
     1
102
RTVSPropertyOp17
 70
     1
102
RTVSPropertyOp18
 70
     1
102
RTVSPropertyOp19
 70
     1
102
RTVSPropertyOp20
 70
     1
102
RTVSPropertyOp21
 70
     1
102
RTVSPropertyOp22
 70
     1
102
RTVSPropertyOp23
 70
     1
102
RTVSPropertyOp24
 70
     1
102
RTVSPropertyOp25
 70
     1
102
RTVSPropertyOp26
 70
     1
102
RTVSPropertyOp27
 70
     1
102
RTVSPropertyOp28
 70
     1
102
RTVSPropertyOp29
 70
     1
102
RTVSPropertyOp30
 70
     1
102
RTVSPropertyOp31
 70
     1
102
RTVSPropertyOp32
 70
     1
102
RTVSPropertyOp33
 70
     1
102
RTVSPropertyOp34
 70
     1
102
RTVSPropertyOp35
 70
     1
102
RTVSPropertyOp36
 70
     1
102
RTVSPropertyOp37
 70
     1
102
RTVSPropertyOp38
 70
     1
102
RTVSPropertyOp39
 70
     1
102
RTVSPropertyOp40
 70
     1
102
RTVSPropertyOp41
 70
     1
102
RTVSPropertyOp42
 70
     1
102
RTVSPropertyOp43
 70
     1
102
RTVSPropertyOp44
 70
     1
102
RTVSPropertyOp45
 70
     1
102
RTVSPropertyOp46
 70
     1
102
RTVSPropertyOp47
 70
     1
102
RTVSPropertyOp48
 70
     1
102
RTVSPropertyOp49
 70
     1
102
RTVSPropertyOp50
 70
     1
102
RTVSPropertyOp51
 70
     0
102
RTVSPropertyOp52
 70
     0
102
RTVSPropertyOp53
 70
     1
102
RTVSPropertyOp54
 70
     1
102
RTVSPropertyOp55
 70
     1
102
RTVSPropertyOp56
 70
     1
102
RTVSPropertyOp57
 70
     1
102
RTVSPost2010Prop28
280
     0
102
RTVSPost2010PropOp28
 70
     1
102
RTVSPost2010Prop29
280
     1
102
RTVSPost2010PropOp29
 70
     1
102
RTVSPost2010Prop30
280
     1
102
RTVSPost2010PropOp30
 70
     1
102
RTVSPost2010Prop31
280
     0
102
RTVSPost2010PropOp31
 70
     1
102
RTVSPost2010Prop32
280
     0
102
RTVSPost2010PropOp32
 70
     1
102
RTVSPost2010Prop33
280
     0
102
RTVSPost2010PropOp33
 70
     1
102
RTVSPost2010Prop34
280
     0
102
RTVSPost2010PropOp34
 70
     1
102
RTVSPost2010Prop35
280
     0
102
RTVSPost2010PropOp35
 70
     1
102
RTVSPost2010Prop36
280
     0
102
RTVSPost2010PropOp36
 70
     1
102
RTVSPost2010Prop37
 90
       50
102
RTVSPost2010PropOp37
 70
     1
102
RTVSPost2010Prop38
140
0.0
102
RTVSPost2010PropOp38
 70
     1
102
RTVSPost2010Prop39
140
1.0
102
RTVSPost2010PropOp39
 70
     1
102
RTVSPost2010Prop40
 90
        0
102
RTVSPost2010PropOp40
 70
     1
102
RTVSPost2010Prop41ColorIndex
 90
       18
102
RTVSPost2010Prop41ColorRGB
 90
        0
102
RTVSPost2010PropOp41
 70
     1
102
RTVSPost2010Prop42
 90
       50
102
RTVSPost2010PropOp42
 70
     1
102
RTVSPost2010Prop43
 90
        3
102
RTVSPost2010PropOp43
 70
     1
102
RTVSPost2010Prop44ColorIndex
 90
        5
102
RTVSPost2010Prop44ColorRGB
 90
      255
102
RTVSPost2010PropOp44
 70
     1
102
RTVSPost2010Prop45
280
     0
102
RTVSPost2010PropOp45
 70
     1
102
RTVSPost2010Prop46
 90
       50
102
RTVSPost2010PropOp46
 70
     1
102
RTVSPost2010Prop47
 90
       50
102
RTVSPost2010PropOp47
 70
     1
102
RTVSPost2010Prop48
 90
       50
102
RTVSPost2010PropOp48
 70
     1
102
RTVSPost2010Prop49
280
     0
102
RTVSPost2010PropOp49
 70
     1
102
RTVSPost2010Prop50
 90
       50
102
RTVSPost2010PropOp50
 70
     1
102
RTVSPost2010Prop51ColorIndex
 90
      256
102
RTVSPost2010Prop51ColorRGB
 90
-16777216
102
RTVSPost2010PropOp51
 70
     0
102
RTVSPost2010Prop52
140
1.0
102
RTVSPost2010PropOp52
 70
     0
102
RTVSPost2010Prop53
 90
        2
102
RTVSPost2010PropOp53
 70
     1
102
RTVSPost2010Prop54
  1
strokes_ogs.tif
102
RTVSPost2010PropOp54
 70
     1
102
RTVSPost2010Prop55
280
     0
102
RTVSPost2010PropOp55
 70
     1
102
RTVSPost2010Prop56
140
1.0
102
RTVSPost2010PropOp56
 70
     1
102
RTVSPost2010Prop57
140
1.0
102
RTVSPost2010PropOp57
 70
     1
  0
XRECORD
  5
2E4
102
{ACAD_REACTORS
330
2E3
102
}
330
2E3
100
AcDbXrecord
280
     1
102
RTVSPropertyOp0
 70
     1
102
RTVSPropertyOp1
 70
     1
102
RTVSPropertyOp2
 70
     1
102
RTVSPropertyOp3
 70
     1
102
RTVSPropertyOp4
 70
     1
102
RTVSPropertyOp5
 70
     1
102
RTVSPropertyOp6
 70
     1
102
RTVSPropertyOp7
 70
     1
102
RTVSPropertyOp8
 70
     1
102
RTVSPropertyOp9
 70
     1
102
RTVSPropertyOp10
 70
     1
102
RTVSPropertyOp11
 70
     1
102
RTVSPropertyOp12
 70
     1
102
RTVSPropertyOp13
 70
     1
102
RTVSPropertyOp14
 70
     1
102
RTVSPropertyOp15
 70
     1
102
RTVSPropertyOp16
 70
     1
102
RTVSPropertyOp17
 70
     1
102
RTVSPropertyOp18
 70
     1
102
RTVSPropertyOp19
 70
     1
102
RTVSPropertyOp20
 70
     1
102
RTVSPropertyOp21
 70
     1
102
RTVSPropertyOp22
 70
     1
102
RTVSPropertyOp23
 70
     1
102
RTVSPropertyOp24
 70
     1
102
RTVSPropertyOp25
 70
     1
102
RTVSPropertyOp26
 70
     1
102
RTVSPropertyOp27
 70
     1
102
RTVSPropertyOp28
 70
     1
102
RTVSPropertyOp29
 70
     1
102
RTVSPropertyOp30
 70
     1
102
RTVSPropertyOp31
 70
     1
102
RTVSPropertyOp32
 70
     1
102
RTVSPropertyOp33
 70
     1
102
RTVSPropertyOp34
 70
     1
102
RTVSPropertyOp35
 70
     1
102
RTVSPropertyOp36
 70
     1
102
RTVSPropertyOp37
 70
     1
102
RTVSPropertyOp38
 70
     1
102
RTVSPropertyOp39
 70
     1
102
RTVSPropertyOp40
 70
     1
102
RTVSPropertyOp41
 70
     1
102
RTVSPropertyOp42
 70
     1
102
RTVSPropertyOp43
 70
     1
102
RTVSPropertyOp44
 70
     1
102
RTVSPropertyOp45
 70
     1
102
RTVSPropertyOp46
 70
     1
102
RTVSPropertyOp47
 70
     1
102
RTVSPropertyOp48
 70
     1
102
RTVSPropertyOp49
 70
     1
102
RTVSPropertyOp50
 70
     1
102
RTVSPropertyOp51
 70
     0
102
RTVSPropertyOp52
 70
     0
102
RTVSPropertyOp53
 70
     1
102
RTVSPropertyOp54
 70
     1
102
RTVSPropertyOp55
 70
     1
102
RTVSPropertyOp56
 70
     1
102
RTVSPropertyOp57
 70
     1
102
RTVSPost2010Prop28
280
     0
102
RTVSPost2010PropOp28
 70
     1
102
RTVSPost2010Prop29
280
     1
102
RTVSPost2010PropOp29
 70
     1
102
RTVSPost2010Prop30
280
     1
102
RTVSPost2010PropOp30
 70
     1
102
RTVSPost2010Prop31
280
     0
102
RTVSPost2010PropOp31
 70
     1
102
RTVSPost2010Prop32
280
     0
102
RTVSPost2010PropOp32
 70
     1
102
RTVSPost2010Prop33
280
     0
102
RTVSPost2010PropOp33
 70
     1
102
RTVSPost2010Prop34
280
     0
102
RTVSPost2010PropOp34
 70
     1
102
RTVSPost2010Prop35
280
     0
102
RTVSPost2010PropOp35
 70
     1
102
RTVSPost2010Prop36
280
     0
102
RTVSPost2010PropOp36
 70
     1
102
RTVSPost2010Prop37
 90
       50
102
RTVSPost2010PropOp37
 70
     1
102
RTVSPost2010Prop38
140
0.0
102
RTVSPost2010PropOp38
 70
     1
102
RTVSPost2010Prop39
140
1.0
102
RTVSPost2010PropOp39
 70
     1
102
RTVSPost2010Prop40
 90
        0
102
RTVSPost2010PropOp40
 70
     1
102
RTVSPost2010Prop41ColorIndex
 90
       18
102
RTVSPost2010Prop41ColorRGB
 90
        0
102
RTVSPost2010PropOp41
 70
     1
102
RTVSPost2010Prop42
 90
       50
102
RTVSPost2010PropOp42
 70
     1
102
RTVSPost2010Prop43
 90
        3
102
RTVSPost2010PropOp43
 70
     1
102
RTVSPost2010Prop44ColorIndex
 90
        5
102
RTVSPost2010Prop44ColorRGB
 90
      255
102
RTVSPost2010PropOp44
 70
     1
102
RTVSPost2010Prop45
280
     0
102
RTVSPost2010PropOp45
 70
     1
102
RTVSPost2010Prop46
 90
       50
102
RTVSPost2010PropOp46
 70
     1
102
RTVSPost2010Prop47
 90
       50
102
RTVSPost2010PropOp47
 70
     1
102
RTVSPost2010Prop48
 90
       50
102
RTVSPost2010PropOp48
 70
     1
102
RTVSPost2010Prop49
280
     0
102
RTVSPost2010PropOp49
 70
     1
102
RTVSPost2010Prop50
 90
       50
102
RTVSPost2010PropOp50
 70
     1
102
RTVSPost2010Prop51ColorIndex
 90
      256
102
RTVSPost2010Prop51ColorRGB
 90
-16777216
102
RTVSPost2010PropOp51
 70
     0
102
RTVSPost2010Prop52
140
1.0
102
RTVSPost2010PropOp52
 70
     0
102
RTVSPost2010Prop53
 90
        2
102
RTVSPost2010PropOp53
 70
     1
102
RTVSPost2010Prop54
  1
strokes_ogs.tif
102
RTVSPost2010PropOp54
 70
     1
102
RTVSPost2010Prop55
280
     0
102
RTVSPost2010PropOp55
 70
     1
102
RTVSPost2010Prop56
140
1.0
102
RTVSPost2010PropOp56
 70
     1
102
RTVSPost2010Prop57
140
1.0
102
RTVSPost2010PropOp57
 70
     1
  0
XRECORD
  5
304
102
{ACAD_REACTORS
330
303
102
}
330
303
100
AcDbXrecord
280
     1
102
RTVSPropertyOp0
 70
     1
102
RTVSPropertyOp1
 70
     1
102
RTVSPropertyOp2
 70
     1
102
RTVSPropertyOp3
 70
     1
102
RTVSPropertyOp4
 70
     1
102
RTVSPropertyOp5
 70
     1
102
RTVSPropertyOp6
 70
     1
102
RTVSPropertyOp7
 70
     1
102
RTVSPropertyOp8
 70
     1
102
RTVSPropertyOp9
 70
     1
102
RTVSPropertyOp10
 70
     1
102
RTVSPropertyOp11
 70
     1
102
RTVSPropertyOp12
 70
     1
102
RTVSPropertyOp13
 70
     1
102
RTVSPropertyOp14
 70
     1
102
RTVSPropertyOp15
 70
     1
102
RTVSPropertyOp16
 70
     1
102
RTVSPropertyOp17
 70
     1
102
RTVSPropertyOp18
 70
     1
102
RTVSPropertyOp19
 70
     1
102
RTVSPropertyOp20
 70
     1
102
RTVSPropertyOp21
 70
     1
102
RTVSPropertyOp22
 70
     1
102
RTVSPropertyOp23
 70
     1
102
RTVSPropertyOp24
 70
     1
102
RTVSPropertyOp25
 70
     1
102
RTVSPropertyOp26
 70
     1
102
RTVSPropertyOp27
 70
     1
102
RTVSPropertyOp28
 70
     1
102
RTVSPropertyOp29
 70
     1
102
RTVSPropertyOp30
 70
     1
102
RTVSPropertyOp31
 70
     1
102
RTVSPropertyOp32
 70
     1
102
RTVSPropertyOp33
 70
     1
102
RTVSPropertyOp34
 70
     1
102
RTVSPropertyOp35
 70
     1
102
RTVSPropertyOp36
 70
     1
102
RTVSPropertyOp37
 70
     1
102
RTVSPropertyOp38
 70
     1
102
RTVSPropertyOp39
 70
     1
102
RTVSPropertyOp40
 70
     1
102
RTVSPropertyOp41
 70
     1
102
RTVSPropertyOp42
 70
     1
102
RTVSPropertyOp43
 70
     1
102
RTVSPropertyOp44
 70
     1
102
RTVSPropertyOp45
 70
     1
102
RTVSPropertyOp46
 70
     1
102
RTVSPropertyOp47
 70
     1
102
RTVSPropertyOp48
 70
     1
102
RTVSPropertyOp49
 70
     1
102
RTVSPropertyOp50
 70
     1
102
RTVSPropertyOp51
 70
     0
102
RTVSPropertyOp52
 70
     0
102
RTVSPropertyOp53
 70
     1
102
RTVSPropertyOp54
 70
     1
102
RTVSPropertyOp55
 70
     1
102
RTVSPropertyOp56
 70
     1
102
RTVSPropertyOp57
 70
     1
102
RTVSPost2010Prop28
280
     0
102
RTVSPost2010PropOp28
 70
     1
102
RTVSPost2010Prop29
280
     1
102
RTVSPost2010PropOp29
 70
     1
102
RTVSPost2010Prop30
280
     1
102
RTVSPost2010PropOp30
 70
     1
102
RTVSPost2010Prop31
280
     0
102
RTVSPost2010PropOp31
 70
     1
102
RTVSPost2010Prop32
280
     0
102
RTVSPost2010PropOp32
 70
     1
102
RTVSPost2010Prop33
280
     0
102
RTVSPost2010PropOp33
 70
     1
102
RTVSPost2010Prop34
280
     0
102
RTVSPost2010PropOp34
 70
     1
102
RTVSPost2010Prop35
280
     0
102
RTVSPost2010PropOp35
 70
     1
102
RTVSPost2010Prop36
280
     0
102
RTVSPost2010PropOp36
 70
     1
102
RTVSPost2010Prop37
 90
       50
102
RTVSPost2010PropOp37
 70
     1
102
RTVSPost2010Prop38
140
0.0
102
RTVSPost2010PropOp38
 70
     1
102
RTVSPost2010Prop39
140
1.0
102
RTVSPost2010PropOp39
 70
     1
102
RTVSPost2010Prop40
 90
        0
102
RTVSPost2010PropOp40
 70
     1
102
RTVSPost2010Prop41ColorIndex
 90
       18
102
RTVSPost2010Prop41ColorRGB
 90
        0
102
RTVSPost2010PropOp41
 70
     1
102
RTVSPost2010Prop42
 90
       50
102
RTVSPost2010PropOp42
 70
     1
102
RTVSPost2010Prop43
 90
        3
102
RTVSPost2010PropOp43
 70
     1
102
RTVSPost2010Prop44ColorIndex
 90
        5
102
RTVSPost2010Prop44ColorRGB
 90
      255
102
RTVSPost2010PropOp44
 70
     1
102
RTVSPost2010Prop45
280
     0
102
RTVSPost2010PropOp45
 70
     1
102
RTVSPost2010Prop46
 90
       50
102
RTVSPost2010PropOp46
 70
     1
102
RTVSPost2010Prop47
 90
       50
102
RTVSPost2010PropOp47
 70
     1
102
RTVSPost2010Prop48
 90
       50
102
RTVSPost2010PropOp48
 70
     1
102
RTVSPost2010Prop49
280
     0
102
RTVSPost2010PropOp49
 70
     1
102
RTVSPost2010Prop50
 90
       50
102
RTVSPost2010PropOp50
 70
     1
102
RTVSPost2010Prop51ColorIndex
 90
      256
102
RTVSPost2010Prop51ColorRGB
 90
-16777216
102
RTVSPost2010PropOp51
 70
     0
102
RTVSPost2010Prop52
140
1.0
102
RTVSPost2010PropOp52
 70
     0
102
RTVSPost2010Prop53
 90
        2
102
RTVSPost2010PropOp53
 70
     1
102
RTVSPost2010Prop54
  1
strokes_ogs.tif
102
RTVSPost2010PropOp54
 70
     1
102
RTVSPost2010Prop55
280
     0
102
RTVSPost2010PropOp55
 70
     1
102
RTVSPost2010Prop56
140
1.0
102
RTVSPost2010PropOp56
 70
     1
102
RTVSPost2010Prop57
140
1.0
102
RTVSPost2010PropOp57
 70
     1
  0
ENDSEC
  0
EOF
